<?xml version="1.0" standalone="no"?>
<!DOCTYPE svg PUBLIC "-//W3C//DTD SVG 1.1//EN" "http://www.w3.org/Graphics/SVG/1.1/DTD/svg11.dtd" >
<svg xmlns="http://www.w3.org/2000/svg">
<metadata>Generated by IcoMoon</metadata>
<defs>
<font id="icomoon" horiz-adv-x="1024">
<font-face units-per-em="1024" ascent="960" descent="-64" />
<missing-glyph horiz-adv-x="1024" />
<glyph unicode="&#x20;" horiz-adv-x="512" d="" />
<glyph unicode="&#xe900;" glyph-name="add-circle" d="M512 874.667c235.648 0 426.667-191.019 426.667-426.667s-191.019-426.667-426.667-426.667c-235.648 0-426.667 191.019-426.667 426.667s191.019 426.667 426.667 426.667zM512 810.667c-200.295 0-362.667-162.371-362.667-362.667s162.371-362.667 362.667-362.667c200.295 0 362.667 162.371 362.667 362.667s-162.371 362.667-362.667 362.667v0zM512 661.333c17.673 0 32-14.327 32-32v-149.333h149.333c17.673 0 32-14.327 32-32s-14.327-32-32-32h-149.333v-149.333c0-17.673-14.327-32-32-32s-32 14.327-32 32v149.333h-149.333c-17.673 0-32 14.327-32 32s14.327 32 32 32h149.333v149.333c0 17.673 14.327 32 32 32z" />
<glyph unicode="&#xe901;" glyph-name="add" d="M507.008 831.701l4.992 0.299c21.631 0 39.837-16.192 42.368-37.675l0.299-4.992v-298.667h298.667c21.631-0.003 39.837-16.192 42.368-37.675l0.299-4.992c0-21.631-16.192-39.837-37.675-42.368l-4.992-0.299h-298.667v-298.667c-0.003-21.631-16.192-39.837-37.675-42.368l-4.992-0.299c-21.631 0-39.837 16.192-42.368 37.675l-0.299 4.992v298.667h-298.667c-21.631 0.003-39.837 16.192-42.368 37.675l-0.299 4.992c0 21.631 16.192 39.837 37.675 42.368l4.992 0.299h298.667v298.667c0.003 21.631 16.192 39.837 37.675 42.368v0z" />
<glyph unicode="&#xe902;" glyph-name="alert-off" d="M221.922 691.838l-128 128c-11.749 12.608-11.402 32.256 0.784 44.443s31.834 12.533 44.443 0.784l789.333-789.333c8.561-7.977 12.085-19.992 9.19-31.33s-11.749-20.191-23.087-23.087c-11.338-2.896-23.352 0.629-31.33 9.19l-139.947 139.947-104.107-0.043c0.090-69.286-54.966-126.066-124.222-128.111s-127.567 51.388-131.564 120.559l-0.213 7.637h-201.6c-17.957 0.021-34.7 9.070-44.556 24.081s-11.502 33.972-4.383 50.457l58.539 134.741v174.848c0 49.152 11.008 95.659 30.72 137.216zM679.308 234.452l-408.576 408.533c-10.322-28.315-15.579-58.225-15.531-88.363v-188.16l-57.344-132.011h481.451zM575.202 170.452l-128-0.043c-0.006-34.147 26.797-62.284 60.903-63.936s63.503 23.762 66.798 57.749l0.299 6.272v-0.043zM767.202 366.42l30.208-69.12 93.355-93.312c5.308 13.26 5.062 28.097-0.683 41.173l-58.88 134.656v174.805l-0.171 10.667c-5.51 172.6-147.141 309.602-319.829 309.377-77.848 0.172-153.071-28.13-211.499-79.574l45.397-45.397c46.33 39.467 105.24 61.076 166.101 60.928 137.985 0.284 251.264-109.047 255.872-246.955l0.128-9.6v-187.648z" />
<glyph unicode="&#xe903;" glyph-name="alert" d="M510.913 874.666c172.672 0.227 314.297-136.75 319.829-309.334l0.171-10.666v-174.806l58.88-134.656c7.218-16.483 5.63-35.496-4.222-50.553s-26.637-24.126-44.631-24.114l-202.027-0.128c0.090-69.286-54.966-126.066-124.222-128.111s-127.567 51.388-131.564 120.559l-0.213 7.68h-201.6c-17.957 0.021-34.7 9.070-44.556 24.081s-11.502 33.972-4.383 50.457l58.539 134.741v174.848c0 177.28 143.019 320 320 320zM574.913 170.495l-128-0.085c-0.006-34.147 26.797-62.284 60.903-63.936s63.503 23.762 66.798 57.749l0.299 6.272zM510.913 810.667c-141.653 0-256-114.091-256-256.001v-188.16l-57.344-132.011h627.072l-57.728 131.968v187.648l-0.128 9.6c-4.608 137.908-117.887 247.239-255.872 246.955z" />
<glyph unicode="&#xe904;" glyph-name="archive" d="M821.333 832c41.216 0 74.667-33.451 74.667-74.667v-85.333c0-29.781-17.408-55.467-42.667-67.456v-423.211c0-88.366-71.634-160-160-160h-362.667c-88.366 0-160 71.634-160 160v423.168c-26.069 12.366-42.681 38.645-42.667 67.499v85.333c0 41.216 33.451 74.667 74.667 74.667h618.667zM789.333 597.333h-554.667v-416c0-53.019 42.981-96 96-96h362.667c53.019 0 96 42.981 96 96v416zM426.667 469.333h170.667c16.823-0.005 30.769-13.035 31.916-29.819s-10.898-31.589-27.564-33.882l-4.352-0.299h-170.667c-16.823 0.005-30.769 13.035-31.916 29.819s10.898 31.589 27.564 33.882l4.352 0.299zM821.333 768h-618.667c-5.891 0-10.667-4.776-10.667-10.667v-85.333c0-5.888 4.779-10.667 10.667-10.667h618.667c5.891 0 10.667 4.776 10.667 10.667v85.333c0 5.891-4.776 10.667-10.667 10.667z" />
<glyph unicode="&#xe905;" glyph-name="arrow-bidirectional-horizontal" d="M599.944 619.723c-11.051 10.503-15.66 26.103-12.090 40.926s14.776 26.614 29.397 30.933c14.621 4.319 30.436 0.51 41.488-9.992l213.333-202.667c8.479-8.055 13.28-19.238 13.28-30.933s-4.801-22.878-13.28-30.933l-213.333-202.667c-11.051-10.503-26.866-14.312-41.488-9.992s-25.827 16.111-29.397 30.933c-3.57 14.822 1.039 30.423 12.090 40.926l135.851 129.067h-468.907l135.851-129.067c17.084-16.236 17.772-43.247 1.536-60.331s-43.247-17.772-60.331-1.536l-213.333 202.667c-8.479 8.055-13.28 19.238-13.28 30.933s4.801 22.878 13.28 30.933l213.333 202.667c17.084 16.236 44.095 15.548 60.331-1.536s15.548-44.095-1.536-60.331l-135.851-129.067h468.907l-135.851 129.067z" />
<glyph unicode="&#xe906;" glyph-name="arrow-down-circle" d="M705.323 459.947l-3.584 3.115c-12.747 9.435-30.482 8.11-41.685-3.115l-116.053-116.053v285.44l-0.299 4.352c-2.173 15.826-15.684 27.626-31.659 27.648l-4.309-0.256c-15.875-2.158-27.708-15.723-27.691-31.744v-285.483l-116.053 116.096-3.584 3.072c-13.463 10.007-32.369 7.918-43.323-4.785s-10.24-31.711 1.638-43.556l170.667-170.709 3.584-3.115c12.747-9.435 30.482-8.11 41.685 3.115l170.667 170.667 3.115 3.627c9.421 12.729 8.115 30.434-3.072 41.643l-0.043 0.043zM85.333 448c0-235.648 191.019-426.667 426.667-426.667s426.667 191.019 426.667 426.667c0 235.648-191.019 426.667-426.667 426.667s-426.667-191.019-426.667-426.667zM874.667 448c0-129.568-69.124-249.294-181.333-314.079s-250.457-64.784-362.667 0c-112.209 64.784-181.333 184.51-181.333 314.079 0 200.295 162.371 362.667 362.667 362.667s362.667-162.371 362.667-362.667v0z" />
<glyph unicode="&#xe907;" glyph-name="arrow-down" d="M840.206 375.296c16.091 16.859 15.676 43.511-0.931 59.862s-43.262 16.351-59.869-0.001l-225.707-229.12v583.296c0 23.564-19.103 42.667-42.667 42.667s-42.667-19.103-42.667-42.667v-583.040l-225.579 228.907c-16.677 15.913-42.979 15.702-59.399-0.476s-17.022-42.473-1.359-59.385l291.072-295.467c10.022-10.163 23.7-15.884 37.973-15.884s27.951 5.721 37.973 15.884l291.157 295.424z" />
<glyph unicode="&#xe908;" glyph-name="arrow-left-circle" d="M523.947 254.72l3.115 3.541c9.435 12.747 8.11 30.482-3.115 41.685l-116.053 116.053h285.44l4.352 0.299c15.842 2.175 27.648 15.71 27.648 31.701l-0.256 4.309c-2.158 15.875-15.723 27.708-31.744 27.691h-285.44l116.139 116.053 3.072 3.584c10.007 13.463 7.918 32.369-4.785 43.323s-31.711 10.24-43.556-1.638l-170.709-170.667-3.115-3.584c-9.435-12.747-8.11-30.482 3.115-41.685l170.667-170.667 3.627-3.115c12.729-9.421 30.434-8.115 41.643 3.072l-0.043 0.043zM512 874.667c-235.648 0-426.667-191.019-426.667-426.667s191.019-426.667 426.667-426.667c235.648 0 426.667 191.019 426.667 426.667s-191.019 426.667-426.667 426.667zM512 85.333c-200.295 0-362.667 162.371-362.667 362.667s162.371 362.667 362.667 362.667c200.295 0 362.667-162.371 362.667-362.667s-162.371-362.667-362.667-362.667v0z" />
<glyph unicode="&#xe909;" glyph-name="arrow-left" d="M439.35 119.388c16.849-16.093 43.493-15.693 59.852 0.898s16.382 43.239 0.052 59.859l-229.12 225.792h583.253c23.564 0 42.667 19.103 42.667 42.667s-19.103 42.667-42.667 42.667h-582.955l228.864 225.493c16.33 16.62 16.307 43.267-0.052 59.859s-43.003 16.992-59.852 0.898l-295.509-291.072c-10.163-10.022-15.884-23.7-15.884-37.973s5.721-27.951 15.884-37.973l295.467-291.115z" />
<glyph unicode="&#xe90a;" glyph-name="arrow-right-circle" d="M523.947 254.72l3.115 3.541c9.435 12.747 8.11 30.482-3.115 41.685l-116.053 116.053h285.44l4.352 0.299c15.842 2.175 27.648 15.71 27.648 31.701l-0.256 4.309c-2.158 15.875-15.723 27.708-31.744 27.691h-285.44l116.139 116.053 3.072 3.584c10.007 13.463 7.918 32.369-4.785 43.323s-31.711 10.24-43.556-1.638l-170.709-170.667-3.115-3.584c-9.435-12.747-8.11-30.482 3.115-41.685l170.667-170.667 3.627-3.115c12.729-9.421 30.434-8.115 41.643 3.072l-0.043 0.043zM512 874.667c-235.648 0-426.667-191.019-426.667-426.667s191.019-426.667 426.667-426.667c235.648 0 426.667 191.019 426.667 426.667s-191.019 426.667-426.667 426.667zM512 85.333c-200.295 0-362.667 162.371-362.667 362.667s162.371 362.667 362.667 362.667c200.295 0 362.667-162.371 362.667-362.667s-162.371-362.667-362.667-362.667v0z" />
<glyph unicode="&#xe90b;" glyph-name="arrow-right" d="M584.704 776.119c-10.74 11.256-26.755 15.774-41.794 11.79s-26.718-15.837-30.477-30.934c-3.76-15.097 0.996-31.043 12.41-41.614l229.077-225.792h-583.253c-23.564 0-42.667-19.103-42.667-42.667s19.103-42.667 42.667-42.667h583.040l-228.907-225.493c-15.913-16.677-15.702-42.979 0.476-59.399s42.473-17.022 59.385-1.359l295.467 291.072c10.163 10.022 15.884 23.7 15.884 37.973s-5.721 27.951-15.884 37.973l-295.424 291.115z" />
<glyph unicode="&#xe90c;" glyph-name="arrow-up-circle" d="M705.323 436.053l-3.584-3.115c-12.747-9.435-30.482-8.11-41.685 3.115l-116.053 116.053v-285.44l-0.299-4.352c-2.173-15.826-15.684-27.626-31.659-27.648l-4.309 0.256c-15.875 2.158-27.708 15.723-27.691 31.744v285.483l-116.053-116.096-3.584-3.072c-13.463-10.007-32.369-7.918-43.323 4.785s-10.24 31.711 1.638 43.556l170.667 170.709 3.584 3.115c12.747 9.435 30.482 8.11 41.685-3.115l170.667-170.667 3.115-3.627c9.421-12.729 8.115-30.434-3.072-41.643l-0.043-0.043zM85.333 448c0 235.648 191.019 426.667 426.667 426.667s426.667-191.019 426.667-426.667c0-235.648-191.019-426.667-426.667-426.667s-426.667 191.019-426.667 426.667zM874.667 448c0 129.568-69.124 249.294-181.333 314.079s-250.457 64.784-362.667 0c-112.209-64.784-181.333-184.51-181.333-314.079 0-200.295 162.371-362.667 362.667-362.667s362.667 162.371 362.667 362.667v0z" />
<glyph unicode="&#xe90d;" glyph-name="arrow-up" d="M182.479 520.65c-16.093-16.849-15.693-43.493 0.898-59.852s43.239-16.382 59.859-0.052l225.792 229.12v-583.253c0-23.564 19.103-42.667 42.667-42.667s42.667 19.103 42.667 42.667v582.997l225.493-228.864c16.62-16.33 43.267-16.307 59.859 0.052s16.992 43.003 0.898 59.852l-291.072 295.467c-10.022 10.163-23.7 15.884-37.973 15.884s-27.951-5.721-37.973-15.884l-291.115-295.467z" />
<glyph unicode="&#xe90e;" glyph-name="attach" d="M502.233 800.164c98.559 98.039 257.347 99.505 357.699 3.301s105.587-254.912 11.794-357.52l-8.064-8.405-377.003-376.661c-60.554-54.52-152.54-54.382-212.93 0.321s-69.596 146.227-21.31 211.861c1.016 1.968 2.232 3.826 3.627 5.547l2.304 2.56 3.712 3.755 6.016 6.315 0.128-0.128 317.269 318.037c11.187 11.213 28.893 12.556 41.643 3.157l3.584-3.115c11.213-11.187 12.556-28.893 3.157-41.643l-3.072-3.584-324.053-324.821c-31.084-38.139-27.964-93.686 7.196-128.104s90.761-36.352 128.228-4.461l376.875 376.747c72.588 73.83 73.6 191.906 2.288 266.969s-189.285 80.1-266.736 11.388l-7.168-6.827-0.512-0.597-406.912-406.869c-11.845-11.878-30.852-12.592-43.556-1.638s-14.792 29.86-4.785 43.323l3.115 3.584 407.467 407.509z" />
<glyph unicode="&#xe90f;" glyph-name="bar-chart" d="M501.419 874.667c64.849 0 117.419-52.57 117.419-117.419v-618.581c0-41.95-22.38-80.713-58.709-101.688s-81.089-20.975-117.419 0c-36.329 20.975-58.709 59.738-58.709 101.688v618.581c0 64.849 52.57 117.419 117.419 117.419zM800.085 661.333c64.849 0 117.419-52.57 117.419-117.419v-405.248c0-64.849-52.57-117.419-117.419-117.419s-117.419 52.57-117.419 117.419v405.248c0 64.849 52.57 117.419 117.419 117.419v0zM202.752 448c64.849 0 117.419-52.57 117.419-117.419v-191.915c0-64.849-52.57-117.419-117.419-117.419s-117.419 52.57-117.419 117.419v191.915c0 64.849 52.57 117.419 117.419 117.419v0zM501.419 810.667c-29.525 0-53.419-23.893-53.419-53.419v-618.581c0-29.502 23.916-53.419 53.419-53.419s53.419 23.916 53.419 53.419v618.581c0 29.525-23.893 53.419-53.419 53.419zM800.085 597.333c-29.483 0-53.419-23.893-53.419-53.419v-405.248c0-29.502 23.916-53.419 53.419-53.419s53.419 23.916 53.419 53.419v405.248c0 29.525-23.893 53.419-53.419 53.419v0zM202.752 384c-29.525 0-53.419-23.893-53.419-53.419v-191.915c0-29.502 23.916-53.419 53.419-53.419s53.419 23.916 53.419 53.419v191.915c0 29.525-23.893 53.419-53.419 53.419v0z" />
<glyph unicode="&#xe910;" glyph-name="brush" d="M245.333 874.667c-17.673 0-32-14.327-32-32v-490.667c0-53.019 42.981-96 96-96h96v-128c0-58.91 47.756-106.667 106.667-106.667s106.667 47.756 106.667 106.667v128h96c25.461 0 49.879 10.114 67.882 28.118s28.118 42.421 28.118 67.882v490.667c0 17.673-14.327 32-32 32h-533.333zM277.333 490.667v320h256v-74.752c0-17.673 14.327-32 32-32s32 14.327 32 32v74.752h42.667v-117.376c0-17.673 14.327-32 32-32s32 14.327 32 32v117.376h42.667v-320h-469.333zM277.333 352v74.667h469.333v-74.667c0-17.673-14.327-32-32-32h-128c-17.673 0-32-14.327-32-32v-160c0-23.564-19.103-42.667-42.667-42.667s-42.667 19.103-42.667 42.667v160c0 17.673-14.327 32-32 32h-128c-17.673 0-32 14.327-32 32z" />
<glyph unicode="&#xe911;" glyph-name="building" d="M341.333 704c0-23.564-19.103-42.667-42.667-42.667s-42.667 19.103-42.667 42.667c0 23.564 19.103 42.667 42.667 42.667s42.667-19.103 42.667-42.667zM298.667 533.333c23.564 0 42.667 19.103 42.667 42.667s-19.103 42.667-42.667 42.667c-23.564 0-42.667-19.103-42.667-42.667s19.103-42.667 42.667-42.667zM341.333 448c0-23.564-19.103-42.667-42.667-42.667s-42.667 19.103-42.667 42.667c0 23.564 19.103 42.667 42.667 42.667s42.667-19.103 42.667-42.667zM341.333 320c0-23.564-19.103-42.667-42.667-42.667s-42.667 19.103-42.667 42.667c0 23.564 19.103 42.667 42.667 42.667s42.667-19.103 42.667-42.667zM298.667 149.333c23.564 0 42.667 19.103 42.667 42.667s-19.103 42.667-42.667 42.667c-23.564 0-42.667-19.103-42.667-42.667s19.103-42.667 42.667-42.667zM597.333 277.333c23.564 0 42.667 19.103 42.667 42.667s-19.103 42.667-42.667 42.667c-23.564 0-42.667-19.103-42.667-42.667s19.103-42.667 42.667-42.667zM725.333 277.333c23.564 0 42.667 19.103 42.667 42.667s-19.103 42.667-42.667 42.667c-23.564 0-42.667-19.103-42.667-42.667s19.103-42.667 42.667-42.667zM725.333 405.333c23.564 0 42.667 19.103 42.667 42.667s-19.103 42.667-42.667 42.667c-23.564 0-42.667-19.103-42.667-42.667s19.103-42.667 42.667-42.667zM640 448c0-23.564-19.103-42.667-42.667-42.667s-42.667 19.103-42.667 42.667c0 23.564 19.103 42.667 42.667 42.667s42.667-19.103 42.667-42.667zM725.333 533.333c23.564 0 42.667 19.103 42.667 42.667s-19.103 42.667-42.667 42.667c-23.564 0-42.667-19.103-42.667-42.667s19.103-42.667 42.667-42.667zM640 576c0-23.564-19.103-42.667-42.667-42.667s-42.667 19.103-42.667 42.667c0 23.564 19.103 42.667 42.667 42.667s42.667-19.103 42.667-42.667zM597.333 746.667v32c0 53.019-42.981 96-96 96h-277.333c-53.019 0-96-42.981-96-96v-704c0-17.664 14.336-32 32-32h704c17.673 0 32 14.327 32 32v576c0 53.019-42.981 96-96 96h-202.667zM192 778.667c0 17.673 14.327 32 32 32h277.333c17.673 0 32-14.327 32-32v-32h-10.667c-53.019 0-96-42.981-96-96v-544h-234.667v672zM618.667 106.667v64h85.333v-64h-85.333zM768 202.667c0 17.673-14.327 32-32 32h-149.333c-17.673 0-32-14.327-32-32v-96h-64v544c0 17.673 14.327 32 32 32h277.333c17.673 0 32-14.327 32-32v-544h-64v96z" />
<glyph unicode="&#xe912;" glyph-name="calculator" d="M298.667 661.333c0 47.128 38.205 85.333 85.333 85.333h256c47.128 0 85.333-38.205 85.333-85.333v-42.667c0-47.128-38.205-85.333-85.333-85.333h-256c-47.128 0-85.333 38.205-85.333 85.333v42.667zM384 682.667c-11.782 0-21.333-9.551-21.333-21.333v-42.667c0-11.782 9.551-21.333 21.333-21.333h256c11.782 0 21.333 9.551 21.333 21.333v42.667c0 11.782-9.551 21.333-21.333 21.333h-256zM352 341.333c29.455 0 53.333 23.878 53.333 53.333s-23.878 53.333-53.333 53.333c-29.455 0-53.333-23.878-53.333-53.333s23.878-53.333 53.333-53.333v0zM405.333 224c0-29.455-23.878-53.333-53.333-53.333s-53.333 23.878-53.333 53.333c0 29.455 23.878 53.333 53.333 53.333s53.333-23.878 53.333-53.333v0zM672 341.333c29.455 0 53.333 23.878 53.333 53.333s-23.878 53.333-53.333 53.333c-29.455 0-53.333-23.878-53.333-53.333s23.878-53.333 53.333-53.333v0zM725.333 224c0-29.455-23.878-53.333-53.333-53.333s-53.333 23.878-53.333 53.333c0 29.455 23.878 53.333 53.333 53.333s53.333-23.878 53.333-53.333zM512 341.333c29.455 0 53.333 23.878 53.333 53.333s-23.878 53.333-53.333 53.333c-29.455 0-53.333-23.878-53.333-53.333s23.878-53.333 53.333-53.333v0zM565.333 224c0-29.455-23.878-53.333-53.333-53.333s-53.333 23.878-53.333 53.333c0 29.455 23.878 53.333 53.333 53.333s53.333-23.878 53.333-53.333v0zM309.333 874.667c-76.583 0-138.667-62.083-138.667-138.667v-576c0-36.777 14.609-72.047 40.615-98.052s61.275-40.615 98.052-40.615h405.333c36.777 0 72.047 14.609 98.052 40.615s40.615 61.275 40.615 98.052v576c0 76.583-62.083 138.667-138.667 138.667h-405.333zM234.667 736c0 41.216 33.451 74.667 74.667 74.667h405.333c41.216 0 74.667-33.451 74.667-74.667v-576c0-41.237-33.429-74.667-74.667-74.667h-405.333c-41.237 0-74.667 33.429-74.667 74.667v576z" />
<glyph unicode="&#xe913;" glyph-name="calendar" d="M757.333 832c76.583 0 138.667-62.083 138.667-138.667v-490.667c0-76.583-62.083-138.667-138.667-138.667h-490.667c-76.583 0-138.667 62.083-138.667 138.667v490.667c0 76.583 62.083 138.667 138.667 138.667h490.667zM832 597.333h-640v-394.667c0-41.216 33.451-74.667 74.667-74.667h490.667c41.237 0 74.667 33.429 74.667 74.667v394.667zM330.667 341.333c29.455 0 53.333-23.878 53.333-53.333s-23.878-53.333-53.333-53.333c-29.455 0-53.333 23.878-53.333 53.333s23.878 53.333 53.333 53.333v0zM512 341.333c29.455 0 53.333-23.878 53.333-53.333s-23.878-53.333-53.333-53.333c-29.455 0-53.333 23.878-53.333 53.333s23.878 53.333 53.333 53.333v0zM330.667 512c29.455 0 53.333-23.878 53.333-53.333s-23.878-53.333-53.333-53.333c-29.455 0-53.333 23.878-53.333 53.333s23.878 53.333 53.333 53.333zM512 512c29.455 0 53.333-23.878 53.333-53.333s-23.878-53.333-53.333-53.333c-29.455 0-53.333 23.878-53.333 53.333s23.878 53.333 53.333 53.333v0zM693.333 512c29.455 0 53.333-23.878 53.333-53.333s-23.878-53.333-53.333-53.333c-29.455 0-53.333 23.878-53.333 53.333s23.878 53.333 53.333 53.333zM757.333 768h-490.667c-41.237 0-74.667-33.429-74.667-74.667v-32h640v32c0 41.237-33.429 74.667-74.667 74.667z" />
<glyph unicode="&#xe914;" glyph-name="chart" d="M192 757.333c0 17.673-14.327 32-32 32s-32-14.327-32-32v-618.667c0-41.216 33.451-74.667 74.667-74.667h618.667c17.673 0 32 14.327 32 32s-14.327 32-32 32h-618.667c-5.891 0-10.667 4.776-10.667 10.667v618.667zM576 650.667c0 17.673 14.327 32 32 32h213.419c17.673 0 32-14.327 32-32v-213.547c0-17.673-14.327-32-32-32s-32 14.327-32 32v136.363l-222.805-222.763c-12.494-12.478-32.733-12.478-45.227 0l-84.053 84.053-137.387-137.387c-12.608-11.749-32.256-11.402-44.443 0.784s-12.533 31.834-0.784 44.443l160 160c12.494 12.478 32.733 12.478 45.227 0l84.053-84.053 200.107 200.107h-136.107c-17.673 0-32 14.327-32 32v0z" />
<glyph unicode="&#xe915;" glyph-name="checkmark-circle" d="M512 874.667c235.648 0 426.667-191.019 426.667-426.667s-191.019-426.667-426.667-426.667c-235.648 0-426.667 191.019-426.667 426.667s191.019 426.667 426.667 426.667zM512 810.667c-200.295 0-362.667-162.371-362.667-362.667s162.371-362.667 362.667-362.667c200.295 0 362.667 162.371 362.667 362.667s-162.371 362.667-362.667 362.667v0zM458.667 386.56l190.72 190.72c11.857 11.765 30.769 12.431 43.424 1.529s14.797-29.703 4.917-43.172l-3.115-3.584-213.333-213.333c-11.198-11.2-28.904-12.524-41.643-3.115l-3.584 3.115-106.667 106.667c-11.765 11.857-12.431 30.769-1.529 43.424s29.703 14.797 43.172 4.917l3.584-3.115 84.053-84.053z" />
<glyph unicode="&#xe916;" glyph-name="checkmark" d="M362.142 252.855l-161.835 161.835c-16.741 16.169-43.353 15.938-59.811-0.52s-16.689-43.069-0.52-59.811l192-192c16.661-16.656 43.669-16.656 60.331 0l469.333 469.333c16.169 16.741 15.938 43.353-0.52 59.811s-43.069 16.689-59.811 0.52l-439.168-439.168z" />
<glyph unicode="&#xe917;" glyph-name="chevron-down-circle" d="M512 874.667c235.648 0 426.667-191.019 426.667-426.667s-191.019-426.667-426.667-426.667c-235.648 0-426.667 191.019-426.667 426.667s191.019 426.667 426.667 426.667zM512 810.667c-200.295 0-362.667-162.371-362.667-362.667s162.371-362.667 362.667-362.667c200.295 0 362.667 162.371 362.667 362.667s-162.371 362.667-362.667 362.667v0zM318.72 534.613c12.494 12.478 32.733 12.478 45.227 0l148.053-148.053 148.053 148.053c7.977 8.561 19.992 12.085 31.33 9.19s20.191-11.749 23.087-23.087c2.896-11.338-0.629-23.352-9.19-31.33l-170.667-170.667c-12.494-12.478-32.733-12.478-45.227 0l-170.667 170.667c-12.478 12.494-12.478 32.733 0 45.227v0z" />
<glyph unicode="&#xe918;" glyph-name="chevron-down" d="M204.75 627.765c16.661 16.656 43.669 16.656 60.331 0l268.501-268.501 268.501 268.501c16.741 16.169 43.353 15.938 59.811-0.52s16.689-43.069 0.52-59.811l-298.667-298.667c-16.661-16.656-43.669-16.656-60.331 0l-298.667 298.667c-16.656 16.661-16.656 43.669 0 60.331v0z" />
<glyph unicode="&#xe919;" glyph-name="chevron-left-circle" d="M938.667 448c0 235.648-191.019 426.667-426.667 426.667s-426.667-191.019-426.667-426.667c0-235.648 191.019-426.667 426.667-426.667s426.667 191.019 426.667 426.667zM874.667 448c0-200.295-162.371-362.667-362.667-362.667s-362.667 162.371-362.667 362.667c0 200.295 162.371 362.667 362.667 362.667s362.667-162.371 362.667-362.667v0zM598.613 254.72c12.478 12.494 12.478 32.733 0 45.227l-148.053 148.053 148.053 148.053c11.749 12.608 11.402 32.256-0.784 44.443s-31.834 12.533-44.443 0.784l-170.667-170.667c-12.478-12.494-12.478-32.733 0-45.227l170.667-170.667c12.494-12.478 32.733-12.478 45.227 0v0z" />
<glyph unicode="&#xe91a;" glyph-name="chevron-left" d="M712.823 776.841c16.656-16.661 16.656-43.669 0-60.331l-268.501-268.501 268.501-268.501c16.169-16.741 15.938-43.353-0.52-59.811s-43.069-16.689-59.811-0.52l-298.667 298.667c-16.656 16.661-16.656 43.669 0 60.331l298.667 298.667c16.661 16.656 43.669 16.656 60.331 0v0z" />
<glyph unicode="&#xe91b;" glyph-name="chevron-right-circle" d="M85.333 448c0 235.648 191.019 426.667 426.667 426.667s426.667-191.019 426.667-426.667c0-235.648-191.019-426.667-426.667-426.667s-426.667 191.019-426.667 426.667zM149.333 448c0-200.295 162.371-362.667 362.667-362.667s362.667 162.371 362.667 362.667c0 200.295-162.371 362.667-362.667 362.667s-362.667-162.371-362.667-362.667v0zM425.387 254.72c-12.478 12.494-12.478 32.733 0 45.227l148.053 148.053-148.053 148.053c-11.749 12.608-11.402 32.256 0.784 44.443s31.834 12.533 44.443 0.784l170.667-170.667c12.478-12.494 12.478-32.733 0-45.227l-170.667-170.667c-12.494-12.478-32.733-12.478-45.227 0v0z" />
<glyph unicode="&#xe91c;" glyph-name="chevron-right" d="M353.826 776.841c-16.656-16.661-16.656-43.669 0-60.331l268.501-268.501-268.501-268.501c-16.169-16.741-15.938-43.353 0.52-59.811s43.069-16.689 59.811-0.52l298.667 298.667c16.656 16.661 16.656 43.669 0 60.331l-298.667 298.667c-16.661 16.656-43.669 16.656-60.331 0v0z" />
<glyph unicode="&#xe91d;" glyph-name="chevron-up-circle" d="M512 21.333c235.648 0 426.667 191.019 426.667 426.667s-191.019 426.667-426.667 426.667c-235.648 0-426.667-191.019-426.667-426.667s191.019-426.667 426.667-426.667zM512 85.333c-200.295 0-362.667 162.371-362.667 362.667s162.371 362.667 362.667 362.667c200.295 0 362.667-162.371 362.667-362.667s-162.371-362.667-362.667-362.667v0zM318.72 361.387c12.494-12.478 32.733-12.478 45.227 0l148.053 148.053 148.053-148.053c7.977-8.561 19.992-12.085 31.33-9.19s20.191 11.749 23.087 23.087c2.896 11.338-0.629 23.352-9.19 31.33l-170.667 170.667c-12.494 12.478-32.733 12.478-45.227 0l-170.667-170.667c-12.478-12.494-12.478-32.733 0-45.227v0z" />
<glyph unicode="&#xe91e;" glyph-name="chevron-up" d="M861.899 268.768c-16.661-16.656-43.669-16.656-60.331 0l-268.501 268.501-268.501-268.501c-16.741-16.169-43.353-15.938-59.811 0.52s-16.689 43.069-0.52 59.811l298.667 298.667c16.661 16.656 43.669 16.656 60.331 0l298.667-298.667c16.656-16.661 16.656-43.669 0-60.331v0z" />
<glyph unicode="&#xe91f;" glyph-name="clipboard-data" d="M682.069 789.333c-5.432 48.588-46.512 85.333-95.403 85.333h-149.333c-48.891 0-89.97-36.746-95.403-85.333h-75.264c-53.019 0-96-42.981-96-96v-576c0-53.019 42.981-96 96-96h490.667c53.019 0 96 42.981 96 96v576c0 25.461-10.114 49.879-28.118 67.882s-42.421 28.118-67.882 28.118h-75.264zM682.453 785.237l0.213-6.571c0 2.219-0.085 4.395-0.213 6.571v0zM437.333 682.667h149.333c33.28 0 62.592 16.939 79.829 42.667h90.837c17.673 0 32-14.327 32-32v-576c0-17.673-14.327-32-32-32h-490.667c-17.673 0-32 14.327-32 32v576c0 17.673 14.327 32 32 32h90.837c17.237-25.728 46.549-42.667 79.829-42.667zM437.333 810.667h149.333c17.673 0 32-14.327 32-32s-14.327-32-32-32h-149.333c-17.673 0-32 14.327-32 32s14.327 32 32 32v0zM704 352c0 17.673-14.327 32-32 32s-32-14.327-32-32v-128c0-17.673 14.327-32 32-32s32 14.327 32 32v128zM512 490.667c17.673 0 32-14.327 32-32v-234.667c0-17.673-14.327-32-32-32s-32 14.327-32 32v234.667c0 17.673 14.327 32 32 32zM384 544c0 17.673-14.327 32-32 32s-32-14.327-32-32v-320c0-17.673 14.327-32 32-32s32 14.327 32 32v320z" />
<glyph unicode="&#xe920;" glyph-name="clock" d="M512 874.667c235.648 0 426.667-191.061 426.667-426.667s-191.019-426.667-426.667-426.667c-235.648 0-426.667 191.061-426.667 426.667s191.019 426.667 426.667 426.667zM512 803.541c-196.053 0-355.541-159.488-355.541-355.541s159.488-355.541 355.541-355.541c196.053 0 355.541 159.488 355.541 355.541s-159.488 355.541-355.541 355.541zM480 704c15.991 0 29.527-11.806 31.701-27.648l0.299-4.352v-224h138.667c16.823-0.005 30.769-13.035 31.916-29.819s-10.898-31.589-27.564-33.882l-4.352-0.299h-170.667c-15.991 0-29.527 11.806-31.701 27.648l-0.299 4.352v256c0 17.673 14.327 32 32 32v0z" />
<glyph unicode="&#xe921;" glyph-name="close-circle" d="M512 874.667c235.648 0 426.667-191.019 426.667-426.667s-191.019-426.667-426.667-426.667c-235.648 0-426.667 191.019-426.667 426.667s191.019 426.667 426.667 426.667zM512 810.667c-200.295 0-362.667-162.371-362.667-362.667s162.371-362.667 362.667-362.667c200.295 0 362.667 162.371 362.667 362.667s-162.371 362.667-362.667 362.667v0zM659.029 601.728l3.584-3.115c11.2-11.198 12.524-28.904 3.115-41.643l-3.115-3.584-105.344-105.387 105.387-105.387c11.187-11.209 12.493-28.914 3.072-41.643l-3.115-3.584c-11.198-11.2-28.904-12.524-41.643-3.115l-3.584 3.115-105.387 105.344-105.387-105.387c-11.209-11.187-28.914-12.493-41.643-3.072l-3.584 3.115c-11.2 11.198-12.524 28.904-3.115 41.643l3.115 3.584 105.344 105.387-105.387 105.387c-11.187 11.209-12.493 28.914-3.072 41.643l3.115 3.584c11.198 11.2 28.904 12.524 41.643 3.115l3.584-3.115 105.387-105.344 105.387 105.387c11.209 11.187 28.914 12.493 41.643 3.072v0z" />
<glyph unicode="&#xe922;" glyph-name="close" d="M237.152 715.788l3.319 3.741c15.295 15.295 39.619 16.719 56.599 3.319l3.741-3.319 211.189-211.189 211.189 211.189c15.297 15.293 39.619 16.719 56.599 3.319l3.741-3.319c15.295-15.295 16.719-39.619 3.319-56.599l-3.319-3.741-211.189-211.189 211.189-211.189c15.293-15.297 16.719-39.619 3.319-56.599l-3.319-3.741c-15.295-15.295-39.619-16.719-56.599-3.319l-3.741 3.319-211.189 211.189-211.189-211.189c-15.297-15.293-39.619-16.719-56.599-3.319l-3.741 3.319c-15.295 15.295-16.719 39.619-3.319 56.599l3.319 3.741 211.189 211.189-211.189 211.189c-15.293 15.297-16.719 39.619-3.319 56.599v0z" />
<glyph unicode="&#xe923;" glyph-name="cloud-download" d="M259.712 629.587c20.844 117.111 122.67 202.413 241.621 202.413s220.777-85.303 241.621-202.413h3.712c49.374 0.003 96.33-21.376 128.745-58.619s47.114-86.699 40.3-135.6c-19.426 22.946-42.436 42.599-68.139 58.197-14.811 43.087-55.345 72.018-100.907 72.021h-32.256c-17.075-0.021-31.158 13.368-32 30.421-4.911 96.438-84.535 172.111-181.099 172.111s-176.188-75.673-181.099-172.111c-0.842-17.037-14.899-30.419-31.957-30.421h-32.256c-58.91 0-106.667-47.756-106.667-106.667s47.756-106.667 106.667-106.667h187.733c-7.615-20.648-12.729-42.135-15.232-64h-172.501c-94.257 0-170.667 76.41-170.667 170.667s76.41 170.667 170.667 170.667h3.712zM938.667 256.253c0 129.603-105.064 234.667-234.667 234.667s-234.667-105.064-234.667-234.667c0-129.603 105.064-234.667 234.667-234.667s234.667 105.064 234.667 234.667zM682.667 384.253c0 11.782 9.551 21.333 21.333 21.333s21.333-9.551 21.333-21.333v-204.501l70.229 70.272c5.396 5.396 13.261 7.504 20.632 5.528s13.129-7.733 15.104-15.104c1.975-7.371-0.132-15.236-5.528-20.632l-106.667-106.667c-4.002-4.012-9.437-6.267-15.104-6.267s-11.102 2.255-15.104 6.267l-106.667 106.667c-8.342 8.342-8.342 21.866 0 30.208s21.866 8.342 30.208 0l70.229-70.272v204.501z" />
<glyph unicode="&#xe924;" glyph-name="cloud-upload" d="M259.712 629.587c20.844 117.111 122.67 202.413 241.621 202.413s220.777-85.303 241.621-202.413h3.712c49.374 0.003 96.33-21.376 128.745-58.619s47.114-86.699 40.3-135.6c-19.426 22.946-42.436 42.599-68.139 58.197-14.811 43.087-55.345 72.018-100.907 72.021h-32.256c-17.075-0.021-31.158 13.368-32 30.421-4.911 96.438-84.535 172.111-181.099 172.111s-176.188-75.673-181.099-172.111c-0.842-17.037-14.899-30.419-31.957-30.421h-32.256c-58.91 0-106.667-47.756-106.667-106.667s47.756-106.667 106.667-106.667h187.733c-7.615-20.648-12.729-42.135-15.232-64h-172.501c-94.257 0-170.667 76.41-170.667 170.667s76.41 170.667 170.667 170.667h3.712zM938.667 256.253c0-129.603-105.064-234.667-234.667-234.667s-234.667 105.064-234.667 234.667c0 129.603 105.064 234.667 234.667 234.667s234.667-105.064 234.667-234.667v0zM682.667 332.755v-204.501c0-11.782 9.551-21.333 21.333-21.333s21.333 9.551 21.333 21.333v204.501l70.229-70.272c5.396-5.396 13.261-7.504 20.632-5.528s13.129 7.733 15.104 15.104c1.975 7.371-0.132 15.236-5.528 20.632l-106.667 106.667c-4.002 4.012-9.437 6.267-15.104 6.267s-11.102-2.255-15.104-6.267l-106.667-106.667c-8.342-8.342-8.342-21.866 0-30.208s21.866-8.342 30.208 0l70.229 70.272z" />
<glyph unicode="&#xe925;" glyph-name="code" d="M344.138 151.758l277.333 618.667c6.887 15.352 24.487 22.748 40.273 16.924s24.365-22.879 19.631-39.026l-1.536-4.096-277.333-618.667c-6.887-15.352-24.487-22.748-40.273-16.924s-24.365 22.879-19.631 39.026l1.536 4.096zM94.709 470.606l181.333 181.333c11.857 11.765 30.769 12.431 43.424 1.529s14.797-29.703 4.917-43.172l-3.115-3.627-158.72-158.677 158.72-158.677c11.765-11.857 12.431-30.769 1.529-43.424s-29.703-14.797-43.172-4.917l-3.584 3.115-181.333 181.333c-11.2 11.198-12.524 28.904-3.115 41.643l3.115 3.584v-0.043zM702.709 651.939c11.198 11.2 28.904 12.524 41.643 3.115l3.584-3.115 181.333-181.333c11.2-11.198 12.524-28.904 3.115-41.643l-3.115-3.627-181.333-181.333c-11.845-11.878-30.852-12.592-43.556-1.638s-14.792 29.86-4.785 43.323l3.115 3.584 158.72 158.72-158.72 158.72c-12.478 12.494-12.478 32.733 0 45.227z" />
<glyph unicode="&#xe926;" glyph-name="column" d="M266.667 832c41.259 0 74.667-33.451 74.667-74.667v-618.667c0-19.803-7.867-38.795-21.869-52.797s-32.994-21.869-52.797-21.869h-106.667c-41.237 0-74.667 33.429-74.667 74.667v618.667c0.025 38.853 29.842 71.193 68.565 74.368l6.101 0.299h106.667zM865.109 832c41.259 0 74.667-33.451 74.667-74.667v-618.667c0-41.237-33.429-74.667-74.667-74.667h-106.667c-41.237 0-74.667 33.429-74.667 74.667v618.667c0 41.216 33.451 74.667 74.667 74.667h106.667zM565.333 832c41.259 0 74.667-33.451 74.667-74.667v-618.667c0-41.237-33.429-74.667-74.667-74.667h-106.667c-41.237 0-74.667 33.429-74.667 74.667v618.667c0 41.216 33.451 74.667 74.667 74.667h106.667zM266.667 768h-106.667l-2.432-0.299c-4.833-1.132-8.246-5.447-8.235-10.411v-618.667c0-5.888 4.779-10.667 10.667-10.667h106.667c5.891 0 10.667 4.776 10.667 10.667v618.709c0 5.891-4.776 10.667-10.667 10.667zM865.109 768h-106.667c-5.891 0-10.667-4.776-10.667-10.667v-618.667c0-5.931 4.779-10.667 10.667-10.667h106.667c5.891 0 10.667 4.776 10.667 10.667v618.667c0 5.891-4.776 10.667-10.667 10.667zM565.333 768h-106.667c-5.891 0-10.667-4.776-10.667-10.667v-618.667c0-5.888 4.779-10.667 10.667-10.667h106.667c5.891 0 10.667 4.776 10.667 10.667v618.667c0 5.891-4.776 10.667-10.667 10.667z" />
<glyph unicode="&#xe927;" glyph-name="comment" d="M224 192c-76.583 0-138.667 62.083-138.667 138.667v362.667c0 76.583 62.083 138.667 138.667 138.667h576c36.777 0 72.047-14.609 98.052-40.615s40.615-61.275 40.615-98.052v-362.667c0-36.777-14.609-72.047-40.615-98.052s-61.275-40.615-98.052-40.615h-244.821l-213.845-160c-16.161-12.095-37.765-14.030-55.818-4.999s-29.46 27.48-29.472 47.666v117.333h-32.043zM533.931 256h266.069c41.237 0 74.667 33.429 74.667 74.667v362.667c0 41.237-33.429 74.667-74.667 74.667h-576c-41.237 0-74.667-33.429-74.667-74.667v-362.667c0-41.216 33.451-74.667 74.667-74.667h95.957v-160l213.973 160z" />
<glyph unicode="&#xe928;" glyph-name="copy" d="M237.714 204.19v60.952h-76.19c-8.095 0-15.238 7.143-15.238 15.238v518.095c0 8.095 7.143 15.238 15.238 15.238h518.095c8.095 0 15.238-7.143 15.238-15.238v-76.19h60.952v76.19c0 41.905-34.286 76.19-76.19 76.19h-518.095c-41.905 0-76.19-34.286-76.19-76.19v-518.095c0-41.905 34.286-76.19 76.19-76.19h76.19zM862.476 21.333c41.905 0 76.19 34.286 76.19 76.19v518.095c0 41.905-34.286 76.19-76.19 76.19h-518.095c-41.905 0-76.19-34.286-76.19-76.19v-518.095c0-41.905 34.286-76.19 76.19-76.19h518.095zM862.476 82.286h-518.095c-8.095 0-15.238 7.143-15.238 15.238v518.095c0 8.095 7.143 15.238 15.238 15.238h518.095c8.095 0 15.238-7.143 15.238-15.238v-518.095c0-8.095-7.143-15.238-15.238-15.238z" />
<glyph unicode="&#xe929;" glyph-name="credit-card" d="M672 341.333c-17.673 0-32-14.327-32-32s14.327-32 32-32h106.667c17.673 0 32 14.327 32 32s-14.327 32-32 32h-106.667zM202.667 746.667c-64.801 0-117.333-52.532-117.333-117.333v-362.667c0-64.801 52.532-117.333 117.333-117.333h618.667c64.801 0 117.333 52.532 117.333 117.333v362.667c0 64.801-52.532 117.333-117.333 117.333h-618.667zM149.333 266.667v224h725.333v-224c0-29.44-23.893-53.333-53.333-53.333h-618.667c-29.44 0-53.333 23.893-53.333 53.333zM149.333 554.667v74.667c0 29.44 23.893 53.333 53.333 53.333h618.667c29.44 0 53.333-23.893 53.333-53.333v-74.667h-725.333z" />
<glyph unicode="&#xe92a;" glyph-name="dashboard" d="M778.709 832c73.537 0 134.29-57.397 138.453-130.816l0.213-7.851v-512.171c0-76.583-62.083-138.667-138.667-138.667h-512c-73.554-0.027-134.332 57.38-138.496 130.816l-0.213 7.851v512.171c0 76.583 62.083 138.667 138.667 138.667h512.043zM490.667 533.333l-298.667-0.043v-352.128l0.299-6.827c3.529-38.436 35.77-67.847 74.368-67.84l224 0.043v426.795zM853.333 277.333l-298.667-0.043v-170.752h224c41.237 0 74.667 33.429 74.667 74.667v96.128zM778.709 768l-224.043 0.043v-426.795l298.667 0.043 0.043 352-0.299 6.827c-3.529 38.436-35.77 67.847-74.368 67.84v0.043zM490.667 768.043l-224-0.043-6.101-0.256c-38.722-3.197-68.521-35.557-68.523-74.411l-0.043-96.085h298.667v170.795z" />
<glyph unicode="&#xe92b;" glyph-name="data" d="M778.667 832c64.801 0 117.333-52.532 117.333-117.333v-533.333c0-64.801-52.532-117.333-117.333-117.333h-533.333c-31.119 0-60.963 12.362-82.967 34.366s-34.366 51.848-34.366 82.967v533.333c0 64.801 52.532 117.333 117.333 117.333h533.333zM778.667 768h-533.333c-29.44 0-53.333-23.893-53.333-53.333v-533.333c0-29.44 23.893-53.333 53.333-53.333h533.333c29.44 0 53.333 23.893 53.333 53.333v533.333c0 29.44-23.893 53.333-53.333 53.333zM330.667 575.829c16.213 0 29.568-11.989 31.701-27.563l0.299-4.309v-277.632c-0.023-8.464-3.407-16.573-9.408-22.542s-14.128-9.31-22.592-9.287c-15.955-0.027-29.486 11.719-31.701 27.52l-0.299 4.352v277.632c0 17.579 14.336 31.829 32 31.829zM693.333 661.163c16.213 0 29.611-11.733 31.701-26.88l0.299-4.267v-364.416c-0.112-8.374-3.547-16.36-9.548-22.202s-14.078-9.059-22.452-8.948c-15.793-0.159-29.303 11.315-31.701 26.926l-0.299 4.224v364.459c0.112 8.374 3.547 16.36 9.548 22.202s14.078 9.059 22.452 8.948v-0.046zM510.933 447.957c15.556 0.22 28.889-11.073 31.232-26.453l0.341-4.267 1.494-151.339c0.071-17.169-13.765-31.157-30.934-31.275-15.55-0.201-28.872 11.082-31.232 26.453l-0.341 4.224-1.494 151.339c-0.094 17.185 13.749 31.2 30.934 31.317v0z" />
<glyph unicode="&#xe92c;" glyph-name="delete" d="M522.667 874.667c73.537 0 134.29-57.397 138.453-130.816l0.213-7.851h224c16.823-0.005 30.769-13.035 31.916-29.819s-10.898-31.589-27.564-33.882l-4.352-0.299h-33.963l-54.613-555.52c-5.651-57.2-51.908-101.885-109.269-105.557l-7.509-0.256h-314.624c-57.505 0-106.534 41.678-115.797 98.432l-0.981 7.424-54.656 555.477h-33.92c-15.991 0.001-29.527 11.806-31.701 27.648l-0.299 4.352c0 15.991 11.806 29.527 27.648 31.701l4.352 0.299h224c0 76.583 62.083 138.667 138.667 138.667zM787.072 672h-528.853l54.059-549.205c2.468-25.266 22.404-45.291 47.659-47.872l5.419-0.256h314.624c25.6 0 47.317 18.133 52.267 42.752l0.853 5.376 53.931 549.205h0.043zM597.333 554.667c15.991 0 29.527-11.806 31.701-27.648l0.299-4.352v-298.667c-0.005-16.823-13.035-30.769-29.819-31.916s-31.589 10.898-33.882 27.564l-0.299 4.352v298.667c0 17.673 14.327 32 32 32zM448 554.667c15.991 0 29.527-11.806 31.701-27.648l0.299-4.352v-298.667c-0.005-16.823-13.035-30.769-29.819-31.916s-31.589 10.898-33.882 27.564l-0.299 4.352v298.667c0 17.673 14.327 32 32 32zM522.667 810.667c-38.854-0.001-71.214-29.8-74.411-68.523l-0.256-6.144h149.333c0 41.237-33.429 74.667-74.667 74.667v0z" />
<glyph unicode="&#xe92d;" glyph-name="desktop" d="M288 21.333c-16.823 0-30.769 13.035-31.916 29.819s10.898 31.589 27.564 33.882l4.352 0.299h74.624v106.581h-181.291c-50.474-0.006-92.332 39.074-95.787 89.429l-0.213 6.571v448.085c0 50.474 39.074 92.332 89.429 95.787l6.571 0.213h661.291c50.474 0 92.332-39.074 95.787-89.429l0.213-6.571v-448.085c0-50.474-39.074-92.332-89.429-95.787l-6.571-0.213h-181.333v-106.581h74.709c16.952 0.172 31.096-12.905 32.251-29.819s-11.081-31.792-27.899-33.925l-4.352-0.256h-448zM597.248 191.915h-170.667l0.043-106.581h170.667l-0.043 106.581zM842.581 768h-661.248c-15.991 0-29.527-11.806-31.701-27.648l-0.299-4.352v-448.085c0-16.213 12.032-29.611 27.648-31.701l4.352-0.299h661.291c15.991 0 29.527 11.806 31.701 27.648l0.299 4.352v448.085c0 15.991-11.806 29.527-27.648 31.701l-4.395 0.299z" />
<glyph unicode="&#xe92e;" glyph-name="diagram" d="M448 768c17.673 0 32-14.327 32-32v-341.333h341.333c15.991-0.001 29.527-11.806 31.701-27.648l0.299-4.352c0-212.053-171.947-362.667-384-362.667-212.077 0-384 171.923-384 384 0 212.053 150.613 384 362.667 384zM416 702.421l-8.917-1.024c-157.44-20.053-257.749-154.539-257.749-317.397 0-176.731 143.269-320 320-320 162.859 0 297.301 100.352 317.44 257.749l0.939 8.917h-339.712c-15.991 0.001-29.527 11.806-31.701 27.648l-0.299 4.352v339.755zM576 874.667c212.077 0 384-171.923 384-384 0-17.673-14.327-32-32-32h-352c-17.673 0-32 14.327-32 32v352c0 17.673 14.327 32 32 32v0zM608 809.088v-286.421h286.379l-0.981 8.917c-18.65 144.267-132.213 257.83-276.48 276.48l-8.917 1.024z" />
<glyph unicode="&#xe92f;" glyph-name="docs" d="M298.667 704c0 23.564 19.103 42.667 42.667 42.667h341.333c23.564 0 42.667-19.103 42.667-42.667v-85.333c0-23.564-19.103-42.667-42.667-42.667h-341.333c-23.564 0-42.667 19.103-42.667 42.667v85.333zM362.667 640h298.667v42.667h-298.667v-42.667zM170.667 768c0 58.91 47.756 106.667 106.667 106.667h490.667c28.29 0 55.421-11.238 75.425-31.242s31.242-47.135 31.242-75.425v-608c0-17.673-14.327-32-32-32h-608c0-23.564 19.103-42.667 42.667-42.667h565.333c17.673 0 32-14.327 32-32s-14.327-32-32-32h-565.333c-58.91 0-106.667 47.756-106.667 106.667v640zM234.667 192h576v576c0 23.564-19.103 42.667-42.667 42.667h-490.667c-23.564 0-42.667-19.103-42.667-42.667v-576z" />
<glyph unicode="&#xe930;" glyph-name="document" d="M789.333 106.667c0-11.782-9.551-21.333-21.333-21.333h-512c-11.782 0-21.333 9.551-21.333 21.333v682.667c0 11.782 9.551 21.333 21.333 21.333h256v-192c0-47.128 38.205-85.333 85.333-85.333h192v-426.667zM576 762.837l165.461-165.504h-144.128c-11.782 0-21.333 9.551-21.333 21.333v144.171zM828.331 601.003l-248.704 248.661c-1.109 1.109-2.475 1.963-3.627 2.987-2.936 2.77-6.058 5.336-9.344 7.68-1.707 1.152-3.669 1.92-5.461 2.901-3.029 1.707-6.016 3.584-9.216 4.949-8.497 3.394-17.489 5.382-26.624 5.888-2.005 0.128-3.968 0.597-6.016 0.597h-263.339c-47.128 0-85.333-38.205-85.333-85.333v-682.667c0-47.128 38.205-85.333 85.333-85.333h512c47.128 0 85.333 38.205 85.333 85.333v434.005c0 22.63-8.998 44.331-25.003 60.331z" />
<glyph unicode="&#xe931;" glyph-name="download" d="M202.658 85.163h575.915c16.942 0.148 31.064-12.936 32.206-29.84s-11.089-31.77-27.897-33.904l-4.309-0.256h-575.915c-16.823 0.005-30.769 13.035-31.916 29.819s10.898 31.589 27.564 33.882l4.352 0.299zM485.666 874.368l4.992 0.299c21.631 0 39.837-16.192 42.368-37.675l0.299-4.992v-537.173l140.544 140.501c15.201 15.199 39.335 16.717 56.32 3.541l4.011-3.541c15.199-15.201 16.717-39.335 3.541-56.32l-3.541-4.053-213.205-213.163c-15.19-15.212-39.325-16.748-56.32-3.584l-4.011 3.541-213.504 213.205c-16.055 15.903-16.926 41.566-1.985 58.521s40.509 19.32 58.305 5.394l4.011-3.541 140.501-140.245v536.917c0.003 21.631 16.192 39.837 37.675 42.368v0z" />
<glyph unicode="&#xe932;" glyph-name="edit" d="M897.254 829.954c59.616-59.618 59.616-156.276 0-215.893l-510.635-510.72c-11.812-11.818-26.505-20.348-42.624-24.747l-218.283-59.52c-11.074-3.004-22.909 0.15-31.019 8.268s-11.251 19.957-8.235 31.028l59.52 218.283c4.399 16.119 12.929 30.812 24.747 42.624l510.635 510.677c59.618 59.616 156.276 59.616 215.893 0zM639.974 698.114l-424.021-424.107c-3.934-3.939-6.772-8.836-8.235-14.208l-44.8-164.267 164.267 44.8c5.35 1.5 10.217 4.368 14.123 8.32l424.107 424.021-125.44 125.44zM726.588 784.728l-41.387-41.387 125.44-125.44 41.387 41.387c34.045 34.74 33.764 90.416-0.63 124.81s-90.070 34.675-124.81 0.63v0z" />
<glyph unicode="&#xe933;" glyph-name="ellipsis-vertical" d="M501.333 640c-26.676 0-51.325 14.231-64.663 37.333s-13.338 51.565 0 74.667c13.338 23.102 37.987 37.333 64.663 37.333 41.237 0 74.667-33.429 74.667-74.667s-33.429-74.667-74.667-74.667v0zM501.333 384c-41.237 0-74.667 33.429-74.667 74.667s33.429 74.667 74.667 74.667c41.237 0 74.667-33.429 74.667-74.667s-33.429-74.667-74.667-74.667zM426.667 202.667c0-41.237 33.429-74.667 74.667-74.667s74.667 33.429 74.667 74.667c0 41.237-33.429 74.667-74.667 74.667s-74.667-33.429-74.667-74.667z" />
<glyph unicode="&#xe934;" glyph-name="ellipsis" d="M341.333 448c0-47.128-38.205-85.333-85.333-85.333s-85.333 38.205-85.333 85.333c0 47.128 38.205 85.333 85.333 85.333s85.333-38.205 85.333-85.333zM597.333 448c0-47.128-38.205-85.333-85.333-85.333s-85.333 38.205-85.333 85.333c0 47.128 38.205 85.333 85.333 85.333s85.333-38.205 85.333-85.333zM768 362.667c47.128 0 85.333 38.205 85.333 85.333s-38.205 85.333-85.333 85.333c-47.128 0-85.333-38.205-85.333-85.333s38.205-85.333 85.333-85.333z" />
<glyph unicode="&#xe935;" glyph-name="error" d="M512 874.667c235.648 0 426.667-191.061 426.667-426.667s-191.019-426.667-426.667-426.667c-235.648 0-426.667 191.061-426.667 426.667s191.019 426.667 426.667 426.667zM512 803.541c-196.053 0-355.541-159.488-355.541-355.541s159.488-355.541 355.541-355.541c196.053 0 355.541 159.488 355.541 355.541s-159.488 355.541-355.541 355.541zM511.957 341.248c23.541 0 42.624-19.083 42.624-42.624s-19.083-42.624-42.624-42.624c-23.541 0-42.624 19.083-42.624 42.624s19.083 42.624 42.624 42.624zM511.744 661.333c16.007 0.021 29.567-11.79 31.744-27.648l0.299-4.309 0.171-192.085c0.017-16.831-13.006-30.799-29.798-31.957s-31.61 10.889-33.904 27.563l-0.299 4.352-0.171 192.043c-0.011 8.494 3.355 16.645 9.358 22.655s14.148 9.388 22.643 9.388h-0.043z" />
<glyph unicode="&#xe936;" glyph-name="filter" d="M426.62 277.333h170.667c22.575-0.025 41.223-17.63 42.546-40.166s-15.137-42.202-37.554-44.868l-4.992-0.299h-170.667c-22.575 0.025-41.223 17.63-42.546 40.166s15.137 42.202 37.554 44.868l4.992 0.299zM341.287 490.667h341.333c22.575-0.025 41.223-17.63 42.546-40.166s-15.137-42.202-37.554-44.868l-4.992-0.299h-341.333c-22.575 0.025-41.223 17.63-42.546 40.166s15.137 42.202 37.554 44.868l4.992 0.299zM213.287 704h597.333c22.575-0.025 41.223-17.63 42.546-40.166s-15.137-42.202-37.554-44.868l-4.992-0.299h-597.333c-22.575 0.025-41.223 17.63-42.546 40.166s15.137 42.202 37.554 44.868l4.992 0.299z" />
<glyph unicode="&#xe937;" glyph-name="folder-open" d="M853.504 554.581v32.085c0 25.461-10.114 49.879-28.118 67.882s-42.421 28.118-67.882 28.118h-244.267l-101.547 84.48c-17.268 14.36-39.024 22.211-61.483 22.187h-168.704c-53.019 0-96-42.981-96-96l-0.171-490.667c0-25.461 10.114-49.879 28.118-67.882s42.421-28.118 67.882-28.118h606.891c34.259-0.008 64.128 23.3 72.448 56.533l74.667 298.581c5.586 22.311 0.577 45.952-13.576 64.081s-35.872 28.724-58.872 28.719h-9.387zM181.504 725.333h168.789c7.48 0.009 14.726-2.603 20.48-7.381l110.421-91.904c5.754-4.778 13-7.39 20.48-7.381h255.829c17.673 0 32-14.327 32-32v-32.085h-515.243c-44.050 0.005-82.452-29.97-93.141-72.704l-31.744-127.061 0.128 338.517c0 17.673 14.327 32 32 32zM243.243 466.347c3.561 14.234 16.346 24.223 31.019 24.235h588.629c3.275-0.009 6.363-1.522 8.378-4.103s2.733-5.945 1.947-9.124l-74.667-298.624c-1.191-4.734-5.444-8.055-10.325-8.064h-605.227c-3.282-0.004-6.383 1.503-8.408 4.086s-2.748 5.954-1.96 9.141l70.613 282.453z" />
<glyph unicode="&#xe938;" glyph-name="folder" d="M350.165 789.333c19.627 0 38.741-6.016 54.784-17.152l6.656-5.12 101.333-84.395h329.728c47.888 0.016 88.464-35.263 95.104-82.688l0.683-6.741 0.213-6.571v-384c0-50.474-39.074-92.332-89.429-95.787l-6.571-0.213h-661.333c-50.474 0-92.332 39.074-95.787 89.429l-0.213 6.571v490.667c0 50.474 39.074 92.332 89.429 95.787l6.571 0.213h168.832zM411.605 534.229c-15.051-12.524-33.571-20.147-53.077-21.845l-8.363-0.384-200.832 0.043v-309.376c0-16.213 12.032-29.611 27.648-31.701l4.352-0.299h661.333c15.991 0 29.527 11.806 31.701 27.648l0.299 4.352v384c0 15.991-11.806 29.527-27.648 31.701l-4.352 0.299h-329.771l-101.291-84.437zM350.165 725.333h-168.832c-15.991 0-29.527-11.806-31.701-27.648l-0.299-4.352v-117.291l200.832-0.043c5.957 0.007 11.794 1.677 16.853 4.821l3.627 2.56 80.683 67.328-80.64 67.2c-4.591 3.831-10.163 6.3-16.085 7.125l-4.437 0.299z" />
<glyph unicode="&#xe939;" glyph-name="help" d="M512 874.667c235.648 0 426.667-191.019 426.667-426.667s-191.018-426.667-426.667-426.667c-68.096-0.094-135.218 16.178-195.712 47.445l-163.243-45.525c-18.543-5.175-38.436 0.045-52.049 13.658s-18.833 33.506-13.658 52.049l45.568 163.115c-31.345 60.547-47.662 127.746-47.574 195.925 0 235.648 191.019 426.667 426.667 426.667zM512.001 810.667c-200.295 0-362.667-162.371-362.667-362.667 0-62.72 15.915-123.008 45.781-176.512l6.4-11.52-47.445-169.984 170.112 47.445 11.52-6.4c132.62-73.734 297.125-57.11 412.312 41.667s156.703 258.822 104.055 401.135c-52.648 142.313-188.328 236.806-340.068 236.835zM512.001 298.667c23.564 0 42.667-19.103 42.667-42.667s-19.103-42.667-42.667-42.667c-23.564 0-42.667 19.103-42.667 42.667s19.103 42.667 42.667 42.667zM512.001 672c64.801 0 117.333-52.532 117.333-117.333 0-43.093-12.672-67.157-44.843-100.651l-7.211-7.296c-26.539-26.539-33.28-37.803-33.28-62.72 0-17.673-14.327-32-32-32s-32 14.327-32 32c0 43.093 12.672 67.157 44.843 100.651l7.211 7.296c26.539 26.539 33.28 37.803 33.28 62.72-0.092 28.326-22.31 51.638-50.598 53.091s-52.778-19.462-55.77-47.629l-0.299-5.461c0-17.673-14.327-32-32-32s-32 14.327-32 32c0 64.801 52.532 117.333 117.333 117.333z" />
<glyph unicode="&#xe93a;" glyph-name="hide" d="M94.709 865.308c-11.2-11.198-12.524-28.904-3.115-41.643l3.115-3.584 172.117-172.16c-83.924-58.821-143.834-145.922-168.747-245.333-3.997-17.028 6.419-34.111 23.387-38.356s34.201 5.921 38.693 22.825c22.14 88.235 76.668 164.909 152.747 214.784l77.227-77.227c-64.163-67.046-62.994-173.075 2.633-238.69s171.655-66.765 238.69-2.59l252.544-252.587c11.845-11.878 30.852-12.592 43.556-1.638s14.792 29.86 4.785 43.323l-3.115 3.584-789.291 789.291c-12.494 12.478-32.733 12.478-45.227 0zM435.36 479.388l150.827-150.869c-41.854-40.424-108.382-39.846-149.527 1.299s-41.723 107.674-1.299 149.527v0.043zM511.989 725.361c-42.667 0-84.053-6.315-123.264-18.133l52.779-52.736c189.592 37.54 375.328-80.142 422.357-267.605 4.598-16.765 21.739-26.794 38.607-22.586s27.29 21.113 23.473 38.074c-47.604 189.842-218.233 322.975-413.952 322.987v0zM520.309 575.601l162.176-162.133c-4.346 87.697-74.478 157.81-162.176 162.133v0z" />
<glyph unicode="&#xe93b;" glyph-name="history" d="M512.018 832c158.499 0 300.709-97.39 358.013-245.167s17.927-315.578-99.132-422.437c-117.059-106.859-287.745-130.818-429.7-60.315s-226.008 220.978-211.602 378.82c1.029 11.387 8.054 21.36 18.43 26.162s22.525 3.704 31.872-2.88c9.347-6.584 14.471-17.655 13.442-29.042-8.888-94.664 25.010-188.345 92.416-255.403 59.899-60.173 141.357-93.921 226.261-93.739 150.489 0.030 280.622 104.914 312.619 251.961s-42.79 296.521-179.659 359.079c-136.87 62.558-298.835 21.295-389.088-99.126h117.589c16.823-0.005 30.769-13.035 31.916-29.819s-10.898-31.589-27.564-33.882l-4.352-0.299h-192.128c-15.991 0.001-29.527 11.806-31.701 27.648l-0.299 4.352v192c0.005 16.823 13.035 30.769 29.819 31.916s31.589-10.898 33.882-27.564l0.299-4.352-0.043-110.549c72.859 90.292 182.687 142.735 298.709 142.635zM480.018 661.333c15.991 0 29.527-11.806 31.701-27.648l0.299-4.352v-181.333h96c16.823-0.005 30.769-13.035 31.916-29.819s-10.898-31.589-27.564-33.882l-4.352-0.299h-128c-15.991 0-29.527 11.806-31.701 27.648l-0.299 4.352v213.333c0 17.673 14.327 32 32 32v0z" />
<glyph unicode="&#xe93c;" glyph-name="image" d="M757.333 832c76.583 0 138.667-62.083 138.667-138.667v-490.667c0-76.583-62.083-138.667-138.667-138.667h-490.667c-76.583 0-138.667 62.083-138.667 138.667v490.667c0 76.583 62.083 138.667 138.667 138.667h490.667zM782.080 132.224l-247.68 242.603c-11.157 10.935-28.58 12.216-41.216 3.029l-3.584-2.987-247.765-242.645c7.765-2.731 16.128-4.224 24.832-4.224h490.667c8.661 0 17.024 1.493 24.747 4.224l0-0zM757.333 768h-490.667c-41.237 0-74.667-33.429-74.667-74.667v-490.667c0-8.875 1.536-17.408 4.395-25.344l248.448 243.243c35.286 34.544 91.022 36.684 128.853 4.949l5.461-4.949 248.405-243.285c2.859 7.936 4.437 16.469 4.437 25.387v490.667c0 41.237-33.429 74.667-74.667 74.667zM650.752 682.667c53.066 0 96.085-43.019 96.085-96.085s-43.019-96.085-96.085-96.085c-53.066 0-96.085 43.019-96.085 96.085s43.019 96.085 96.085 96.085zM650.752 618.667c-17.72 0-32.085-14.365-32.085-32.085s14.365-32.085 32.085-32.085c17.72 0 32.085 14.365 32.085 32.085s-14.365 32.085-32.085 32.085z" />
<glyph unicode="&#xe93d;" glyph-name="info" d="M512 874.667c235.691 0 426.752-191.061 426.752-426.752 0-235.648-191.061-426.709-426.752-426.709s-426.667 191.061-426.667 426.709c-0.043 235.691 190.976 426.752 426.667 426.752zM512 810.667c-130.529 1.416-251.752-67.409-317.429-180.22s-65.676-252.21 0-365.021c65.676-112.811 186.9-181.636 317.429-180.22 198.15 3.039 357.188 164.536 357.188 362.709s-159.039 359.67-357.188 362.709v0.043zM511.829 512c16.007 0.021 29.567-11.79 31.744-27.648l0.299-4.352 0.171-234.752c0.172-16.952-12.905-31.096-29.819-32.251s-31.792 11.081-33.925 27.899l-0.256 4.309-0.171 234.752c0 17.673 14.327 32 32 32l-0.043 0.043zM512.043 661.205c15.542 0.492 30.119-7.519 38.035-20.903s7.916-30.017 0-43.4c-7.916-13.384-22.493-21.394-38.035-20.903-23.004 0.728-41.276 19.587-41.276 42.603s18.271 41.875 41.276 42.603v0z" />
<glyph unicode="&#xe93e;" glyph-name="key" d="M780.843 663.467c0-29.455-23.878-53.333-53.333-53.333s-53.333 23.878-53.333 53.333c0 29.455 23.878 53.333 53.333 53.333s53.333-23.878 53.333-53.333v0zM663.509 874.667c-154.306-0.094-279.373-125.161-279.467-279.467 0-16.512 2.133-32.427 4.693-47.104 0.761-3.75-0.353-7.635-2.987-10.411l-266.027-266.069c-22.007-21.995-34.377-51.83-34.389-82.944v-92.672c0-41.216 33.451-74.667 74.667-74.667h106.667c41.237 0 74.667 33.429 74.667 74.667v53.333h74.709c29.44 0 53.333 23.893 53.333 53.333v74.667h74.667c28.705-0.019 52.277 22.685 53.333 51.371 21.163-5.461 43.52-8.704 66.133-8.704 154.306 0.094 279.373 125.161 279.467 279.467 0 154.923-125.995 275.2-279.467 275.2zM448.043 595.2c0.094 118.96 96.507 215.373 215.467 215.467 119.552 0 215.467-93.056 215.467-211.2-0.094-118.96-96.507-215.373-215.467-215.467-29.013 0-58.88 7.296-85.547 18.773-9.894 4.25-21.262 3.239-30.25-2.691s-14.392-15.981-14.379-26.749v-32h-74.624c-29.44 0-53.333-23.893-53.333-53.333v-74.667h-74.667c-29.44 0-53.333-23.893-53.333-53.333v-64c0-5.891-4.776-10.667-10.667-10.667h-106.667c-5.891 0-10.667 4.776-10.667 10.667v92.672c0 14.123 5.632 27.733 15.616 37.717l266.069 266.027c17.381 17.531 25.12 42.437 20.736 66.731-2.289 11.887-3.546 23.95-3.755 36.053v0z" />
<glyph unicode="&#xe93f;" glyph-name="link" d="M332.98 663.041c80.094 82.809 209.951 82.809 290.044 0s80.094-217.070 0-299.879v0l-72.255-74.705-48.398 50.039 72.255 75.763c25.728 26.629 40.087 62.791 39.877 100.429 0.712 37.531-13.304 73.76-38.854 100.429-25.585 26.576-60.357 41.517-96.625 41.517s-71.040-14.941-96.625-41.517v0l-272.662-281.907c-25.704-26.453-40.155-62.404-40.155-99.901s14.451-73.448 40.155-99.901c25.585-26.576 60.357-41.517 96.625-41.517s71.040 14.941 96.625 41.517v0l48.398-50.039c-38.796-39.778-91.236-62.074-145.874-62.020-54.161-0.7-106.378 20.844-145.193 59.905-38.609 39.686-60.318 93.651-60.318 149.939s21.709 110.254 60.318 149.939v0zM819.001 832c54.359 0 106.481-22.377 144.852-62.186 79.93-82.353 80.235-216.080 0.682-298.822v0l-272.662-281.907c-38.564-39.922-90.962-62.252-145.533-62.023-54.189-0.321-106.287 21.605-144.852 60.966-38.504 39.672-60.147 93.561-60.147 149.763s21.643 110.091 60.147 149.763v0l48.398 50.039 48.057-50.039-48.057-50.039c-34.46-35.691-47.885-87.679-35.22-136.379s49.499-86.715 96.625-99.725c47.126-13.009 97.384 0.963 131.844 36.654v0l272.662 281.907c34.521 35.691 48.003 87.712 35.367 136.467s-49.469 86.837-96.625 99.901c-47.156 13.064-97.471-0.875-131.992-36.566v0l-48.398 50.039c38.371 39.81 90.493 62.186 144.852 62.186z" />
<glyph unicode="&#xe940;" glyph-name="location" d="M236.819 765.853c145.084 145.084 380.313 145.084 525.397 0s145.084-380.313 0-525.397l-50.645-50.091c-37.333-36.608-85.76-83.712-145.323-141.312-37.212-35.981-96.249-35.981-133.461 0l-148.949 144.896c-18.731 18.389-34.389 33.877-47.019 46.507-69.675 69.67-108.819 164.166-108.819 262.699s39.144 193.028 108.819 262.699v0zM716.947 720.627c-120.106 120.083-314.818 120.064-434.901-0.043s-120.064-314.818 0.043-434.901l63.403-62.635c43.796-42.792 87.715-85.459 131.755-128 12.406-12.003 32.096-12.003 44.501 0l144.811 140.8c20.053 19.669 36.821 36.267 50.347 49.835 120.079 120.085 120.079 314.774 0 434.859l0.043 0.085zM499.518 619.464c70.74 0 128.085-57.346 128.085-128.085s-57.346-128.085-128.085-128.085c-69.817 1.274-125.748 58.236-125.748 128.064s55.931 126.79 125.748 128.064v0.043zM499.518 555.464c-22.895 0-44.052-12.215-55.5-32.043s-11.448-44.257 0-64.085c11.448-19.828 32.604-32.043 55.5-32.043 35.382 0 64.064 28.682 64.064 64.064s-28.682 64.064-64.064 64.064v0.043z" />
<glyph unicode="&#xe941;" glyph-name="lock-open" d="M512 874.667c80 0 142.251-51.456 167.595-128.128 5.538-16.789-3.584-34.889-20.373-40.427s-34.889 3.584-40.427 20.373c-17.109 51.84-56.235 84.181-106.795 84.181-60.032 0-103.253-40.875-106.496-108.843l-0.213-8.32v-74.624h352.043c50.489 0.005 92.353-39.1 95.787-89.472l0.213-6.571v-405.163c0-50.474-39.074-92.332-89.429-95.787l-6.571-0.213h-490.667c-50.474 0-92.332 39.074-95.787 89.429l-0.213 6.571v405.163c0 50.474 39.074 92.332 89.429 95.787l6.571 0.213 74.624 0.043v74.667c0.043 108.245 73.003 181.077 170.709 181.077v0.043zM757.333 554.837h-490.667c-15.991 0-29.527-11.806-31.701-27.648l-0.299-4.352v-405.163c0-16.213 12.032-29.568 27.648-31.701l4.352-0.299h490.667c15.991 0 29.527 11.806 31.701 27.648l0.299 4.352v405.163c0.021 16.007-11.79 29.567-27.648 31.744l-4.352 0.256zM512 384.171c23.392 0.855 45.381-11.137 57.331-31.264s11.95-45.174 0-65.301c-11.95-20.127-33.939-32.119-57.331-31.264-34.668 0.896-62.306 29.257-62.306 63.936s27.638 63.040 62.306 63.936v-0.043z" />
<glyph unicode="&#xe942;" glyph-name="lock" d="M512 874.667c94.257 0 170.667-76.41 170.667-170.667v-85.333h74.667c25.461 0 49.879-10.114 67.882-28.118s28.118-42.421 28.118-67.882v-405.333c0-25.461-10.114-49.879-28.118-67.882s-42.421-28.118-67.882-28.118h-490.667c-53.019 0-96 42.981-96 96v405.333c0 53.019 42.981 96 96 96h74.667v85.333c0 94.257 76.41 170.667 170.667 170.667zM757.333 554.667h-490.667c-17.673 0-32-14.327-32-32v-405.333c0-17.664 14.336-32 32-32h490.667c17.673 0 32 14.327 32 32v405.333c0 17.673-14.327 32-32 32zM512 384c35.346 0 64-28.654 64-64s-28.654-64-64-64c-35.346 0-64 28.654-64 64s28.654 64 64 64zM512 810.667c-58.91 0-106.667-47.756-106.667-106.667v-85.333h213.333v85.333c0 58.91-47.756 106.667-106.667 106.667v0z" />
<glyph unicode="&#xe943;" glyph-name="mail-open" d="M487.76 828.792c8.338 4.178 18.207 4.281 26.636 0.279v0l407.536-193.528c10.238-4.862 16.735-14.994 16.735-26.099v0-559.080c0-16.032-13.327-29.029-29.767-29.029v0h-793.798c-16.44 0-29.767 12.997-29.767 29.029v0 559.080c0 10.881 6.24 20.848 16.164 25.821v0zM501.703 770.523l-356.834-178.777v-512.354h734.264v511.903l-377.429 179.228zM793.172 526.256c7.209-13.285 2.784-29.555-9.77-37.715l-2.618-1.521-268.16-138.38-293.24 137.89c-14.808 6.963-21.025 24.315-13.884 38.756 6.694 13.539 22.751 19.713 36.934 14.694l2.808-1.154 266.119-125.127 241.578 124.637c14.531 7.499 32.544 2.090 40.233-12.081z" />
<glyph unicode="&#xe944;" glyph-name="mail" d="M877.714 746.667h-731.429c-33.663 0-60.952-26.744-60.952-59.733v-477.867c0-32.99 27.289-59.733 60.952-59.733h731.429c33.663 0 60.952 26.744 60.952 59.733v477.867c0 32.99-27.289 59.733-60.952 59.733zM810.667 686.933l-298.667-202.496-298.667 202.496h597.333zM146.286 209.067v450.688l348.343-236.245c10.447-7.103 24.296-7.103 34.743 0l348.343 236.245v-450.688h-731.429z" />
<glyph unicode="&#xe945;" glyph-name="maximize" d="M533.248 832l322.389-0.043 5.12-0.597 3.755-0.853 4.437-1.451 3.84-1.707 2.688-1.536 2.688-1.792 2.731-2.133 2.688-2.475 4.011-4.693 3.072-4.693 2.261-4.864 1.536-4.48 0.64-2.773 0.427-2.261 0.427-6.315v-320.171c-0.025-22.575-17.63-41.223-40.166-42.546s-42.202 15.137-44.868 37.554l-0.299 4.992v217.173l-536.96-536.917h217.088c21.645-0.005 39.857-16.218 42.368-37.717l0.299-4.949c0.016-21.662-16.202-39.898-37.717-42.411l-4.949-0.256h-322.603l-4.096 0.427-3.285 0.64-3.285 0.939-2.987 1.109-3.84 1.792-3.797 2.261-3.883 2.987 1.365-1.152c-2.629 2.076-5.006 4.453-7.083 7.083l-2.176 2.987-1.707 2.731-1.365 2.731-1.451 3.499-1.067 3.413-1.024 4.736-0.299 2.603-0.171 3.84v320.128c0.025 22.575 17.63 41.223 40.166 42.546s42.202-15.137 44.868-37.554l0.299-4.992v-217.088l536.917 536.917h-217.003c-21.647-0.019-39.878 16.176-42.411 37.675l-0.256 4.992c0 23.564 19.103 42.667 42.667 42.667z" />
<glyph unicode="&#xe946;" glyph-name="menu" d="M127.954 234.667h768c22.575-0.025 41.223-17.63 42.546-40.166s-15.137-42.202-37.554-44.868l-4.992-0.299h-768c-22.575 0.025-41.223 17.63-42.546 40.166s15.137 42.202 37.554 44.868l4.992 0.299zM127.954 490.667l768 0.085c22.575-0.025 41.223-17.63 42.546-40.166s-15.137-42.202-37.554-44.868l-4.992-0.299-768-0.085c-22.575 0.025-41.223 17.63-42.546 40.166s15.137 42.202 37.554 44.868l4.992 0.299zM127.954 746.667h768c22.575-0.025 41.223-17.63 42.546-40.166s-15.137-42.202-37.554-44.868l-4.992-0.299h-768c-22.575 0.025-41.223 17.63-42.546 40.166s15.137 42.202 37.554 44.868l4.992 0.299z" />
<glyph unicode="&#xe947;" glyph-name="minimize" d="M448.039 426.453c21.645-0.005 39.857-16.218 42.368-37.717l0.3-4.949v-320.171c0.178-22.723-17.483-41.6-40.167-42.931s-42.432 15.351-44.911 37.939l-0.256 4.992v217.301l-247.083-247.125c-15.201-15.199-39.335-16.717-56.32-3.541l-4.053 3.541c-15.199 15.201-16.717 39.335-3.541 56.32l3.541 4.053 246.955 246.955h-216.917c-22.575 0.025-41.223 17.63-42.546 40.166s15.137 42.202 37.554 44.868l4.992 0.299h320.085zM576.039 874.667c21.647 0.019 39.878-16.176 42.411-37.675l0.299-4.992v-217.045l247.168 247.211c15.201 15.199 39.335 16.717 56.32 3.541l4.053-3.541c15.199-15.201 16.717-39.335 3.541-56.32l-3.541-4.053-247.339-247.253h217.173c22.723 0.18 41.6-17.481 42.931-40.166s-15.351-42.432-37.939-44.911l-4.992-0.299h-320c-21.647-0.019-39.878 16.176-42.411 37.675l-0.256 4.992v320.171c0 23.564 19.103 42.667 42.667 42.667h-0.085z" />
<glyph unicode="&#xe948;" glyph-name="move" d="M651.919 702.748c-12.494-12.478-32.733-12.478-45.227 0l-62.72 62.72v-157.44c0-17.673-14.327-32-32-32s-32 14.327-32 32v157.44l-62.72-62.72c-12.608-11.749-32.256-11.402-44.443 0.784s-12.533 31.834-0.784 44.443l117.333 117.333c12.494 12.478 32.733 12.478 45.227 0l117.333-117.333c12.478-12.494 12.478-32.733 0-45.227v0zM257.252 353.308c8.561-7.977 12.085-19.992 9.19-31.33s-11.749-20.191-23.087-23.087c-11.338-2.896-23.352 0.629-31.33 9.19l-117.333 117.333c-12.478 12.494-12.478 32.733 0 45.227l117.333 117.333c12.608 11.749 32.256 11.402 44.443-0.784s12.533-31.834 0.784-44.443l-62.72-62.72h157.44c17.673 0 32-14.327 32-32s-14.327-32-32-32h-157.44l62.72-62.72zM766.692 308.081c-12.478 12.494-12.478 32.733 0 45.227l62.72 62.72h-157.44c-17.673 0-32 14.327-32 32s14.327 32 32 32h157.44l-62.72 62.72c-11.749 12.608-11.402 32.256 0.784 44.443s31.834 12.533 44.443 0.784l117.333-117.333c12.478-12.494 12.478-32.733 0-45.227l-117.333-117.333c-12.494-12.478-32.733-12.478-45.227 0v0zM651.919 193.308c-12.494 12.478-32.733 12.478-45.227 0l-62.72-62.72v157.44c0 17.673-14.327 32-32 32s-32-14.327-32-32v-157.44l-62.72 62.72c-12.608 11.749-32.256 11.402-44.443-0.784s-12.533-31.834-0.784-44.443l117.333-117.333c12.494-12.478 32.733-12.478 45.227 0l117.333 117.333c12.478 12.494 12.478 32.733 0 45.227v0z" />
<glyph unicode="&#xe949;" glyph-name="next" d="M767.991 832c21.631 0 39.837-16.192 42.368-37.675l0.299-4.992v-682.667c-0.025-22.575-17.63-41.223-40.166-42.546s-42.202 15.137-44.868 37.554l-0.299 4.992v682.667c0 23.564 19.103 42.667 42.667 42.667zM225.826 819.499c15.201 15.199 39.335 16.717 56.32 3.541l4.011-3.541 341.333-341.333c15.199-15.201 16.717-39.335 3.541-56.32l-3.541-4.011-341.333-341.333c-15.935-15.881-41.463-16.661-58.337-1.781s-19.296 40.304-5.535 58.101l3.541 4.011 311.168 311.168-311.168 311.168c-16.656 16.661-16.656 43.669 0 60.331z" />
<glyph unicode="&#xe94a;" glyph-name="open-external" d="M266.667 768c-41.237 0-74.667-33.429-74.667-74.667v-490.667c0-41.216 33.408-74.667 74.667-74.667h490.667c41.237 0 74.667 33.429 74.667 74.667v170.667c0 17.673 14.327 32 32 32s32-14.327 32-32v-170.667c0-76.583-62.083-138.667-138.667-138.667h-490.667c-76.583 0-138.667 62.083-138.667 138.667v490.667c0 76.583 62.083 138.667 138.667 138.667h170.667c17.673 0 32-14.327 32-32s-14.327-32-32-32h-170.667zM554.667 800c0 17.673 14.327 32 32 32h277.333c17.673 0 32-14.327 32-32v-277.333c0-17.673-14.327-32-32-32s-32 14.327-32 32v200.107l-222.72-222.72c-12.608-11.749-32.256-11.402-44.443 0.784s-12.533 31.834-0.784 44.443l222.72 222.72h-200.107c-17.673 0-32 14.327-32 32v0z" />
<glyph unicode="&#xe94b;" glyph-name="organigram" d="M522.165 874.666c-82.326 0.187-151.373-62.097-159.641-144.008s46.938-156.737 127.641-173.006v-88.405h-138.667c-53.019 0-96-42.981-96-96v-35.243c-80.261-16.728-134.932-91.363-126.675-172.932s76.775-143.734 158.761-144.039c82.31-0.143 151.314 62.154 159.559 144.050s-46.958 156.697-127.644 172.963v35.2c0 17.673 14.327 32 32 32h341.333c17.673 0 32-14.327 32-32v-35.243c-80.261-16.728-134.932-91.363-126.675-172.932s76.775-143.734 158.761-144.039c82.31-0.143 151.314 62.154 159.559 144.050s-46.957 156.697-127.644 172.963v35.2c0 53.019-42.981 96-96 96h-138.667v88.405c80.344 16.637 135.123 91.296 126.883 172.93s-76.836 143.839-158.883 144.084zM426.080 714.58c0 53.066 43.019 96.085 96.085 96.085s96.085-43.019 96.085-96.085c0-53.066-43.019-96.085-96.085-96.085s-96.085 43.019-96.085 96.085v0zM191.499 181.119c0 34.336 18.318 66.063 48.053 83.231s66.371 17.168 96.107 0c29.736-17.168 48.053-48.895 48.053-83.231 0-53.078-43.028-96.107-96.107-96.107s-96.107 43.028-96.107 96.107v0zM756.917 277.247c34.336 0 66.063-18.318 83.231-48.053s17.168-66.371 0-96.107c-17.168-29.736-48.895-48.053-83.231-48.053-53.078 0-96.107 43.028-96.107 96.107s43.028 96.107 96.107 96.107v0z" />
<glyph unicode="&#xe94c;" glyph-name="pause-circle" d="M448 608c0 17.673-14.327 32-32 32s-32-14.327-32-32v-320c0-17.673 14.327-32 32-32s32 14.327 32 32v320zM640 608c0 17.673-14.327 32-32 32s-32-14.327-32-32v-320c0-17.673 14.327-32 32-32s32 14.327 32 32v320zM512 874.667c-235.648 0-426.667-191.019-426.667-426.667s191.019-426.667 426.667-426.667c235.648 0 426.667 191.019 426.667 426.667s-191.019 426.667-426.667 426.667zM149.333 448c0 200.295 162.371 362.667 362.667 362.667s362.667-162.371 362.667-362.667c0-200.295-162.371-362.667-362.667-362.667s-362.667 162.371-362.667 362.667z" />
<glyph unicode="&#xe94d;" glyph-name="pause" d="M245.333 832c-41.237 0-74.667-33.429-74.667-74.667v-618.667c0-41.216 33.451-74.667 74.667-74.667h149.333c41.237 0 74.667 33.429 74.667 74.667v618.667c0 41.237-33.429 74.667-74.667 74.667h-149.333zM629.333 832c-41.237 0-74.667-33.429-74.667-74.667v-618.667c0-41.216 33.451-74.667 74.667-74.667h149.333c41.237 0 74.667 33.429 74.667 74.667v618.667c0 41.237-33.429 74.667-74.667 74.667h-149.333z" />
<glyph unicode="&#xe94e;" glyph-name="person" d="M757.376 362.88c25.457 0 49.87-10.116 67.867-28.12s28.101-42.423 28.090-67.88v-24.533c0-38.144-13.653-75.051-38.443-104.021-66.987-78.208-168.832-116.821-303.019-116.821-134.229 0-236.032 38.613-302.848 116.907-24.736 28.95-38.337 65.772-38.357 103.851v24.661c0 25.457 10.116 49.87 28.12 67.867s42.423 28.101 67.88 28.090h490.709zM757.376 298.88h-490.752c-8.483 0-16.618-3.373-22.612-9.375s-9.356-14.142-9.345-22.625v-24.619c0-22.827 8.192-44.928 23.040-62.293 53.461-62.677 137.344-94.464 254.165-94.464s200.789 31.787 254.379 94.421c14.876 17.395 23.047 39.533 23.040 62.421v24.576c0 17.633-14.282 31.934-31.915 31.957v0zM511.872 874.667c76.217 0 146.644-40.661 184.752-106.667s38.108-147.328 0-213.333c-38.108-66.006-108.535-106.667-184.752-106.667-117.821 0-213.333 95.513-213.333 213.333s95.513 213.333 213.333 213.333zM511.872 810.667c-53.352 0-102.651-28.463-129.326-74.667s-26.676-103.129 0-149.333c26.676-46.204 75.975-74.667 129.326-74.667 82.475 0 149.333 66.859 149.333 149.333s-66.859 149.333-149.333 149.333v0z" />
<glyph unicode="&#xe94f;" glyph-name="phone" d="M290.402 854.675l49.792 14.976c56.424 17.014 116.714-10.465 140.885-64.213l38.485-85.589c20.598-45.822 9.739-99.673-27.008-133.931l-63.744-59.435c-1.863-1.736-3.044-4.082-3.328-6.613-1.877-16.939 9.6-49.92 36.053-95.787 19.243-33.323 36.693-56.747 51.499-69.845 10.325-9.173 16-11.136 18.432-10.453l85.76 26.24c48.017 14.687 100.058-2.808 129.451-43.52l54.656-75.776c34.375-47.659 28.194-113.398-14.464-153.813l-37.803-35.84c-40.811-38.648-98.909-53.047-153.045-37.931-117.504 32.811-222.848 131.968-317.227 295.424-94.507 163.669-127.659 304.64-97.109 422.955 13.986 54.118 55.199 97.014 108.715 113.152v0zM308.877 793.363c-32.099-9.671-56.829-35.387-65.237-67.84-25.685-99.499 3.712-224.469 90.581-374.955 86.741-150.272 180.139-238.165 279.040-265.813 32.47-9.044 67.305-0.396 91.776 22.784l37.845 35.84c19.397 18.374 22.206 48.265 6.571 69.931l-54.613 75.733c-13.362 18.528-37.039 26.489-58.88 19.797l-85.973-26.325c-49.92-14.848-95.232 25.301-143.872 109.568-32.768 56.747-48.043 100.693-44.245 134.869 2.005 17.749 10.24 34.133 23.296 46.336l63.744 59.435c16.711 15.57 21.652 40.053 12.288 60.885l-38.485 85.589c-10.986 24.411-38.366 36.896-64 29.184l-49.835-15.019z" />
<glyph unicode="&#xe950;" glyph-name="play-circle" d="M463.189 612.053c-16.518 9.156-36.646 8.893-52.92-0.69s-26.265-27.059-26.27-45.944v-234.837c0.004-18.886 9.996-36.361 26.27-45.944s36.402-9.846 52.92-0.69l245.632 136.064c10.175 5.639 16.489 16.356 16.489 27.989s-6.313 22.35-16.489 27.989l-245.632 136.064zM512 874.667c-235.648 0-426.667-191.019-426.667-426.667s191.019-426.667 426.667-426.667c235.648 0 426.667 191.019 426.667 426.667s-191.019 426.667-426.667 426.667zM149.333 448c0 200.295 162.371 362.667 362.667 362.667s362.667-162.371 362.667-362.667c0-200.295-162.371-362.667-362.667-362.667s-362.667 162.371-362.667 362.667z" />
<glyph unicode="&#xe951;" glyph-name="play" d="M170.667 735.855c0 72.832 77.909 119.125 141.867 84.352l527.445-286.976c66.816-36.395 66.816-132.309 0-168.661l-527.445-286.976c-63.957-34.816-141.867 11.52-141.867 84.309v573.952z" />
<glyph unicode="&#xe952;" glyph-name="plug" d="M684.146 863.955c13.389-13.389 14.226-34.578 2.511-48.942l-2.511-2.778-144.796-144.801 192.085-192.085 144.801 144.796c14.282 14.282 37.438 14.282 51.72 0 13.389-13.389 14.226-34.578 2.511-48.942l-2.511-2.778-144.808-144.788 47.285-47.301c13.092-13.092 14.183-33.64 3.273-47.975l-3.273-3.745-97.339-97.338c-78.731-79.869-194.232-111.411-302.63-82.644-41.992 11.144-80.421 30.676-113.42 56.726l-169.278-169.317c-14.282-14.282-37.438-14.282-51.72 0-13.389 13.389-14.226 34.578-2.511 48.942l2.511 2.778 169.317 169.278c-26.050 32.998-45.582 71.428-56.726 113.42-28.767 108.398 2.774 223.899 82.457 302.445v0l97.524 97.524c14.282 14.282 37.438 14.282 51.72 0v0l47.301-47.285 144.788 144.808c14.282 14.282 37.438 14.282 51.72 0zM414.476 688.859l-71.85-71.857c-61.171-60.299-85.328-148.759-63.295-231.779 10.060-37.908 29.046-72.025 54.611-100.008 3.229-1.57 6.204-3.738 8.87-6.404 2.671-2.671 4.842-5.652 6.514-8.827 27.873-25.609 61.99-44.594 99.898-54.654 83.020-22.032 171.48 2.125 231.964 63.482v0l71.672 71.664-46.965 46.961c-0.109 0.107-0.218 0.214-0.326 0.322l-0.289 0.321-243.236 243.207c-0.095 0.093-0.191 0.187-0.285 0.282l-0.319 0.351-46.964 46.939z" />
<glyph unicode="&#xe953;" glyph-name="previous" d="M275.692 763.077c-19.967 0-36.773-14.947-39.109-34.777l-0.276-4.608v-630.154c0.023-20.838 16.274-38.052 37.076-39.273s38.956 13.973 41.417 34.665l0.276 4.608v630.154c0 21.752-17.633 39.385-39.385 39.385zM776.153 751.537c-14.031 14.030-36.309 15.431-51.988 3.269l-3.702-3.269-315.077-315.077c-14.030-14.031-15.431-36.309-3.269-51.988l3.269-3.702 315.077-315.077c14.709-14.659 38.273-15.379 53.85-1.644s17.812 37.204 5.109 53.632l-3.269 3.702-287.232 287.232 287.232 287.232c15.375 15.38 15.375 40.31 0 55.69z" />
<glyph unicode="&#xe954;" glyph-name="prohibited" d="M512 874.667c235.648 0 426.667-191.019 426.667-426.667s-191.019-426.667-426.667-426.667c-235.648 0-426.667 191.019-426.667 426.667s191.019 426.667 426.667 426.667zM790.059 680.832l-510.891-510.891c144.065-120.635 356.411-111.256 489.279 21.612s142.247 345.214 21.612 489.279zM512 810.667c-140.876 0-269.007-81.582-328.609-209.228s-39.892-278.26 50.551-386.271l510.891 510.891c-65.211 54.766-147.674 84.732-232.832 84.608z" />
<glyph unicode="&#xe955;" glyph-name="question" d="M512 874.667c235.648 0 426.667-191.061 426.667-426.667s-191.019-426.667-426.667-426.667c-235.648 0-426.667 191.061-426.667 426.667s191.019 426.667 426.667 426.667zM512 803.541c-196.053 0-355.541-159.488-355.541-355.541s159.488-355.541 355.541-355.541c196.053 0 355.541 159.488 355.541 355.541s-159.488 355.541-355.541 355.541zM512 298.667c23.564 0 42.667-19.103 42.667-42.667s-19.103-42.667-42.667-42.667c-23.564 0-42.667 19.103-42.667 42.667s19.103 42.667 42.667 42.667zM512 672c64.801 0 117.333-52.532 117.333-117.333 0-43.093-12.672-67.157-44.843-100.651l-7.211-7.296c-26.539-26.539-33.28-37.803-33.28-62.72 0-17.673-14.327-32-32-32s-32 14.327-32 32c0 43.093 12.672 67.157 44.843 100.651l7.211 7.296c26.539 26.539 33.28 37.803 33.28 62.72-0.092 28.326-22.31 51.638-50.598 53.091s-52.778-19.462-55.77-47.629l-0.299-5.461c0-17.673-14.327-32-32-32s-32 14.327-32 32c0 64.801 52.532 117.333 117.333 117.333z" />
<glyph unicode="&#xe956;" glyph-name="refresh" d="M511.976 768.052c-133.753-0.023-253.382-83.231-299.936-208.621s-10.211-266.506 91.12-353.81c101.331-87.304 246.27-102.375 363.396-37.788s181.724 195.208 161.965 327.493c-2.859 19.371 11.307 38.059 30.891 38.059 15.787 0 29.696-10.923 32.085-26.581 28.597-184.536-79.706-362.891-256.632-422.627s-371.176 16.466-460.292 180.569c-89.116 164.102-47.258 368.523 99.185 484.392s355.011 109.59 494.219-14.878v44.459c0 17.673 14.327 32 32 32s32-14.327 32-32v-128c0-17.673-14.327-32-32-32h-128c-17.673 0-32 14.327-32 32s14.327 32 32 32h57.6c-59.119 54.959-136.881 85.454-217.6 85.333v0z" />
<glyph unicode="&#xe957;" glyph-name="reorder" d="M682.667 234.667c47.128 0 85.333-38.205 85.333-85.333s-38.205-85.333-85.333-85.333c-47.128 0-85.333 38.205-85.333 85.333s38.205 85.333 85.333 85.333zM341.333 234.667c47.128 0 85.333-38.205 85.333-85.333s-38.205-85.333-85.333-85.333c-47.128 0-85.333 38.205-85.333 85.333s38.205 85.333 85.333 85.333zM682.667 533.333c47.128 0 85.333-38.205 85.333-85.333s-38.205-85.333-85.333-85.333c-47.128 0-85.333 38.205-85.333 85.333s38.205 85.333 85.333 85.333zM341.333 533.333c47.128 0 85.333-38.205 85.333-85.333s-38.205-85.333-85.333-85.333c-47.128 0-85.333 38.205-85.333 85.333s38.205 85.333 85.333 85.333zM682.667 832c47.128 0 85.333-38.205 85.333-85.333s-38.205-85.333-85.333-85.333c-47.128 0-85.333 38.205-85.333 85.333s38.205 85.333 85.333 85.333zM341.333 832c47.128 0 85.333-38.205 85.333-85.333s-38.205-85.333-85.333-85.333c-47.128 0-85.333 38.205-85.333 85.333s38.205 85.333 85.333 85.333z" />
<glyph unicode="&#xe958;" glyph-name="search" d="M437.31 832c119.312 0.015 227.996-68.589 279.306-176.304s36.098-235.337-39.093-327.973l209.067-209.067c11.909-11.831 12.651-30.853 1.701-43.576s-29.871-14.822-43.344-4.808l-3.584 3.115-209.109 209.067c-105.637-85.709-254.87-92.346-367.699-16.353s-162.77 216.777-123.052 346.884c39.718 130.106 159.773 218.995 295.807 219.016v0zM437.31 768c-87.649 0-168.64-46.76-212.465-122.667s-43.825-169.427 0-245.333c43.825-75.906 124.816-122.667 212.465-122.667 135.494 0 245.333 109.839 245.333 245.333s-109.839 245.333-245.333 245.333z" />
<glyph unicode="&#xe959;" glyph-name="send" d="M232.455 458.509l-144.853 372.48c-10.069 25.899 15.189 50.688 40.192 41.856l3.968-1.664 768-384c10.075-5.032 16.763-14.988 17.612-26.218s-4.268-22.078-13.473-28.566l-4.139-2.475-768-384c-24.875-12.416-51.925 10.453-45.44 36.181l1.28 4.053 144.853 372.352zM177.33 776.802l111.36-286.293h282.752c15.991-0.001 29.527-11.806 31.701-27.648l0.299-4.352c-0.004-16.005-11.831-29.546-27.691-31.701l-4.309-0.299h-282.837l-111.317-286.293 636.629 318.293-636.587 318.293z" />
<glyph unicode="&#xe95a;" glyph-name="settings" d="M527.906 874.667c31.317-0.341 62.507-3.968 93.056-10.795 13.342-2.978 23.319-14.104 24.832-27.691l7.253-65.152c2.073-18.639 12.876-35.186 29.107-44.581s35.96-10.522 53.155-3.035l59.733 26.24c12.439 5.478 26.981 2.502 36.267-7.424 43.175-46.127 75.327-101.445 94.037-161.792 4.021-12.998-0.617-27.118-11.563-35.2l-52.992-39.083c-15.125-11.098-24.057-28.739-24.049-47.499s8.956-36.393 24.091-47.477l53.035-39.040c10.964-8.088 15.604-22.231 11.563-35.243-18.705-60.34-50.841-115.656-93.995-161.792-9.268-9.921-23.788-12.914-36.224-7.467l-59.989 26.325c-17.173 7.545-36.914 6.457-53.154-2.931s-27.034-25.952-29.065-44.599l-7.211-65.109c-1.49-13.432-11.257-24.48-24.405-27.605-61.787-14.697-126.16-14.697-187.947 0-13.148 3.125-22.916 14.173-24.405 27.605l-7.253 65.024c-2.128 18.564-12.93 35.021-29.115 44.359s-35.839 10.451-52.975 3.001l-60.032-26.283c-12.436-5.448-26.956-2.455-36.224 7.467-43.176 46.185-75.313 101.562-93.995 161.963-4.041 13.011 0.599 27.154 11.563 35.243l53.077 39.083c15.13 11.091 24.070 28.728 24.070 47.488s-8.94 36.397-24.070 47.488l-53.035 38.997c-10.979 8.077-15.637 22.222-11.605 35.243 18.723 60.351 50.89 115.669 94.080 161.792 9.278 9.907 23.797 12.882 36.224 7.424l59.733-26.24c17.22-7.465 36.96-6.318 53.2 3.089s27.055 25.961 29.147 44.612l7.253 65.109c1.501 13.616 11.502 24.766 24.875 27.733 30.635 6.784 61.867 10.368 93.952 10.752v0zM527.906 810.667c-19.368-0.225-38.693-1.894-57.813-4.992l-4.651-41.685c-4.32-38.9-26.876-73.43-60.761-93.017s-75.065-21.898-110.929-6.226l-38.315 16.811c-24.406-29.616-43.831-63.005-57.515-98.859l34.048-25.045c31.516-23.162 50.129-59.939 50.129-99.051s-18.613-75.889-50.129-99.051l-34.048-25.088c13.653-35.925 33.067-69.376 57.472-99.072l38.656 16.939c35.778 15.621 76.848 13.325 110.661-6.187s56.353-53.921 60.731-92.714l4.608-41.984c37.973-6.4 76.757-6.4 114.731 0l4.608 41.984c4.281 38.876 26.813 73.393 60.681 92.955s75.025 21.834 110.839 6.117l38.571-16.896c24.391 29.634 43.801 63.037 57.472 98.901l-34.048 25.088c-31.533 23.151-50.158 59.932-50.158 99.051s18.626 75.9 50.158 99.051l33.963 25.045c-13.684 35.854-33.109 69.243-57.515 98.859l-38.229-16.768c-35.845-15.692-77.017-13.401-110.899 6.172s-56.436 54.094-60.749 92.985l-4.693 41.643c-18.808 3.075-37.819 4.743-56.875 4.992v0.043zM527.351 618.667c88.366 0 160-71.634 160-160s-71.634-160-160-160c-88.366 0-160 71.634-160 160s71.634 160 160 160zM527.351 554.667c-53.019 0-96-42.981-96-96s42.981-96 96-96c53.019 0 96 42.981 96 96s-42.981 96-96 96z" />
<glyph unicode="&#xe95b;" glyph-name="share" d="M288 789.313h147.797c16.823 0 30.769-13.035 31.916-29.819s-10.898-31.589-27.564-33.882l-4.352-0.299h-147.797c-50.458 0.008-92.311-39.048-95.787-89.387l-0.213-6.613v-405.333c0.016-50.457 39.090-92.29 89.429-95.744l6.571-0.256h405.333c50.474-0.006 92.332 39.074 95.787 89.429l0.213 6.571v21.248c-0.172 16.952 12.905 31.096 29.819 32.251s31.792-11.081 33.925-27.899l0.256-4.352v-21.248c-0.015-85.039-66.549-155.209-151.467-159.744l-8.533-0.256h-405.333c-85.071 0-155.272 66.558-159.787 151.509l-0.213 8.533v405.333c0.015 85.039 66.549 155.209 151.467 159.744l8.533 0.213zM618.795 680.769v119.211c-0.007 12 6.7 22.996 17.374 28.482s23.519 4.537 33.272-2.455l3.499-2.901 255.744-245.333c11.947-11.477 13.056-29.867 3.285-42.581l-3.285-3.627-255.744-245.419c-8.659-8.316-21.244-11.086-32.594-7.174s-19.556 13.849-21.251 25.734l-0.299 4.565v119.509l-13.696 0.299c-113.408 0.341-210.347-46.251-292.907-140.885-21.163-24.192-60.8-5.589-55.723 26.155 35.285 219.307 153.6 343.211 349.44 365.141l12.885 1.28z" />
<glyph unicode="&#xe95c;" glyph-name="smartphone" d="M672 874.667c53.019 0 96-42.981 96-96v-661.333c0-53.019-42.981-96-96-96h-320c-53.019 0-96 42.981-96 96v661.333c0 53.019 42.981 96 96 96h320zM672 810.667h-320c-17.673 0-32-14.327-32-32v-661.333c0-17.664 14.336-32 32-32h320c17.673 0 32 14.327 32 32v661.333c0 17.673-14.327 32-32 32zM565.291 213.333c17.673 0.024 32.019-14.284 32.043-31.957s-14.284-32.019-31.957-32.043l-106.667-0.171c-17.673-0.024-32.019 14.284-32.043 31.957s14.284 32.019 31.957 32.043l106.667 0.171z" />
<glyph unicode="&#xe95d;" glyph-name="sort" d="M271.013 874.197l2.475 0.299 3.84 0.171 3.2-0.128 5.376-0.725 4.736-1.28 4.736-1.877 4.181-2.219 4.437-3.157 3.499-3.115 234.667-234.667c15.881-15.935 16.661-41.463 1.781-58.337s-40.304-19.296-58.101-5.535l-4.011 3.541-161.835 161.792v-664.96c-0.025-22.575-17.63-41.223-40.166-42.546s-42.202 15.137-44.868 37.554l-0.299 4.992v664.96l-161.835-161.792c-15.201-15.199-39.335-16.717-56.32-3.541l-4.011 3.541c-15.199 15.201-16.717 39.335-3.541 56.32l3.541 4.011 234.667 234.667c1.489 1.495 3.087 2.878 4.779 4.139l4.693 3.029 4.864 2.304 4.48 1.493 5.035 1.067zM746.661 874.667c21.631 0 39.837-16.192 42.368-37.675l0.299-4.992v-664.96l161.835 161.792 4.011 3.541c16.986 13.166 41.112 11.644 56.309-3.553s16.718-39.323 3.553-56.309l-3.541-4.011-236.544-236.416-2.901-2.389-4.693-3.029-4.864-2.304-4.48-1.493-4.992-1.067-3.84-0.427h-5.035l-2.56 0.256-4.864 0.853-4.651 1.408-3.456 1.451-4.181 2.219-4.096 2.859c-1.347 1.060-2.629 2.2-3.84 3.413l-234.667 234.667-3.541 4.011c-11.942 15.392-11.942 36.918 0 52.309l3.541 4.011 4.011 3.541c15.392 11.942 36.918 11.942 52.309 0l4.011-3.541 161.835-161.792v664.96l0.299 4.992c2.531 21.482 20.737 37.675 42.368 37.675z" />
<glyph unicode="&#xe95e;" glyph-name="speech" d="M512 874.667c235.648 0 426.667-191.019 426.667-426.667s-191.018-426.667-426.667-426.667c-68.096-0.094-135.218 16.178-195.712 47.445l-163.243-45.525c-18.543-5.175-38.436 0.045-52.049 13.658s-18.833 33.506-13.658 52.049l45.568 163.115c-31.345 60.547-47.662 127.746-47.574 195.925 0 235.648 191.019 426.667 426.667 426.667zM512.001 810.667c-200.295 0-362.667-162.371-362.667-362.667 0-62.72 15.915-123.008 45.781-176.512l6.4-11.52-47.445-169.984 170.112 47.445 11.52-6.4c132.62-73.734 297.125-57.11 412.312 41.667s156.703 258.822 104.055 401.135c-52.648 142.313-188.328 236.806-340.068 236.835zM373.334 405.333h191.915c16.823-0.005 30.769-13.035 31.916-29.819s-10.898-31.589-27.564-33.882l-4.352-0.299h-191.915c-16.823 0.005-30.769 13.035-31.916 29.819s10.898 31.589 27.564 33.882l4.352 0.299zM373.334 554.667h277.547c16.815-0.027 30.74-13.064 31.875-29.84s-10.908-31.569-27.566-33.861l-4.309-0.299h-277.547c-16.823 0.005-30.769 13.035-31.916 29.819s10.898 31.589 27.564 33.882l4.352 0.299z" />
<glyph unicode="&#xe95f;" glyph-name="star-filled" d="M460.289 842.571c21.12 42.795 82.176 42.795 103.296 0l100.608-203.861 224.981-32.683c47.232-6.827 66.091-64.939 31.915-98.261l-162.816-158.677 38.443-224c8.107-47.104-41.301-82.987-83.584-60.757l-201.216 105.813-201.173-105.813c-42.24-22.187-91.648 13.653-83.627 60.715l38.443 224.043-162.773 158.72c-34.176 33.28-15.317 91.349 31.915 98.219l224.981 32.683 100.608 203.861z" />
<glyph unicode="&#xe960;" glyph-name="star" d="M460.289 842.571c21.12 42.795 82.176 42.795 103.296 0l100.608-203.861 224.981-32.683c47.232-6.827 66.091-64.939 31.915-98.261l-162.816-158.677 38.443-224c8.107-47.104-41.301-82.987-83.584-60.757l-201.216 105.813-201.173-105.813c-42.24-22.187-91.648 13.653-83.627 60.715l38.443 224.043-162.773 158.72c-34.176 33.28-15.317 91.349 31.915 98.219l224.981 32.683 100.608 203.861zM511.916 802.592l-96.341-195.2c-8.381-17.003-24.591-28.794-43.349-31.531l-215.467-31.317 155.904-151.979c13.568-13.227 19.755-32.299 16.555-50.987l-36.779-214.571 192.683 101.333c16.787 8.831 36.845 8.831 53.632 0l192.683-101.333-36.779 214.613c-3.194 18.67 2.996 37.718 16.555 50.944l155.904 151.979-215.467 31.317c-18.758 2.737-34.968 14.528-43.349 31.531l-96.384 195.2z" />
<glyph unicode="&#xe961;" glyph-name="substract" d="M512 874.667c235.648 0 426.667-191.019 426.667-426.667s-191.019-426.667-426.667-426.667c-235.648 0-426.667 191.019-426.667 426.667s191.019 426.667 426.667 426.667zM512 810.667c-200.295 0-362.667-162.371-362.667-362.667s162.371-362.667 362.667-362.667c200.295 0 362.667 162.371 362.667 362.667s-162.371 362.667-362.667 362.667v0zM693.333 480c17.673 0 32-14.327 32-32s-14.327-32-32-32h-362.667c-17.673 0-32 14.327-32 32s14.327 32 32 32h362.667z" />
<glyph unicode="&#xe962;" glyph-name="sync" d="M682.756 749.681c-10.708-14.057-7.996-34.132 6.059-44.843 100.661-76.66 144.496-206.889 110.679-328.814s-138.47-210.97-264.237-224.828l28.885 28.885c11.878 11.845 12.592 30.852 1.638 43.556s-29.86 14.792-43.323 4.785l-3.584-3.115-85.333-85.333c-11.2-11.198-12.524-28.904-3.115-41.643l3.115-3.584 85.333-85.333c11.857-11.765 30.769-12.431 43.424-1.529s14.797 29.703 4.917 43.172l-3.072 3.584-32 32c153.99 12.752 284.211 119.048 327.543 267.365s-9.182 308-132.087 401.648c-14.045 10.717-34.119 8.024-44.843-6.016v0.043zM438.702 907.975c-12.478-12.494-12.478-32.733 0-45.227l32-32c-151.398-12.471-280.143-115.435-325.588-260.389s1.474-302.991 118.655-399.664c8.818-7.286 20.854-9.315 31.573-5.321s18.494 13.403 20.395 24.683c1.901 11.28-2.36 22.717-11.178 30.004-95.89 79.127-135.1 207.966-99.548 327.096s138.962 205.406 262.534 219.037l-28.843-28.885c-8.315-8.038-11.645-19.938-8.711-31.124s11.675-19.92 22.865-22.843c11.189-2.923 23.086 0.419 31.116 8.741l85.333 85.333c12.478 12.494 12.478 32.733 0 45.227l-85.333 85.333c-12.494 12.478-32.733 12.478-45.227 0h-0.043z" />
<glyph unicode="&#xe963;" glyph-name="table" d="M128 693.333c0 76.583 62.083 138.667 138.667 138.667h490.667c76.583 0 138.667-62.083 138.667-138.667v-490.667c0-76.583-62.083-138.667-138.667-138.667h-490.667c-76.583 0-138.667 62.083-138.667 138.667v490.667zM266.667 768c-41.237 0-74.667-33.429-74.667-74.667v-213.333h288v288h-213.333zM480 416h-288v-213.333c0-41.216 33.451-74.667 74.667-74.667h213.333v288zM544 416v-288h213.333c41.237 0 74.667 33.429 74.667 74.667v213.333h-288zM832 480v213.333c0 41.237-33.429 74.667-74.667 74.667h-213.333v-288h288z" />
<glyph unicode="&#xe964;" glyph-name="tag" d="M819.832 874.667c53.019 0 96-42.981 96-96v-233.045c0-36.776-14.613-72.045-40.619-98.048l-362.667-362.795c-54.194-54.070-141.922-54.089-196.139-0.043l-190.379 190.037c-54.194 54.105-54.271 141.897-0.171 196.096l362.667 363.093c26.017 26.042 61.322 40.67 98.133 40.661l233.173 0.043zM819.832 810.667h-233.216c-19.797 0-38.827-7.893-52.821-21.888l-363.179-363.648c-28.618-29.27-28.333-76.126 0.64-105.045l190.336-190.037c29.218-29.102 76.467-29.102 105.685 0l362.667 362.795c14.005 13.995 21.878 32.98 21.888 52.779v233.045c0 17.673-14.327 32-32 32v0zM702.498 725.248c22.865 0 43.993-12.198 55.426-32s11.432-44.198 0-64c-11.432-19.802-32.561-32-55.426-32-35.346 0-64 28.654-64 64s28.654 64 64 64v0z" />
<glyph unicode="&#xe965;" glyph-name="team" d="M170.667 405.376l384-0.043c44.656 0.014 81.771-34.403 85.12-78.933l0.213-6.4v-64c-0.043-149.333-158.549-192-277.333-192-116.139 0-270.293 40.789-277.12 182.187l-0.213 9.813v64.043c0 44.971 34.816 81.835 78.933 85.12l6.4 0.171v0.043zM649.387 405.333h203.947c44.971 0 81.835-34.816 85.077-78.933l0.256-6.4v-42.667c-0.043-130.645-121.941-170.668-213.333-170.668-30.956-0.072-61.743 4.56-91.307 13.74 14.336 16.469 25.899 35.285 34.219 56.619 18.742-4.188 37.884-6.32 57.088-6.357l11.392 0.256c42.027 1.835 131.669 15.488 137.643 97.664l0.299 8.747v42.667c-0.014 10.297-7.367 19.122-17.493 20.992l-3.84 0.341h-172.843c-3.528 20.887-12.259 40.549-25.387 57.173l-5.717 6.827zM170.667 341.376l-4.267-0.427c-4.095-0.852-7.858-2.867-10.837-5.803-2.936-2.962-4.952-6.711-5.803-10.795l-0.427-4.309v-64.043c0-43.051 19.2-73.472 60.459-95.659 35.243-18.987 85.461-30.464 139.349-32.128l13.525-0.213 13.525 0.213c53.888 1.664 104.064 13.141 139.349 32.128 38.656 20.821 57.984 48.853 60.245 87.765l0.213 7.936v63.957c-0.014 10.297-7.367 19.122-17.493 20.992l-3.84 0.341-384 0.043zM362.667 874.667c106.039 0 192-85.961 192-192s-85.961-192-192-192c-106.039 0-192 85.961-192 192s85.961 192 192 192v0zM746.667 789.333c82.475 0 149.333-66.859 149.333-149.333s-66.859-149.333-149.333-149.333c-82.475 0-149.333 66.859-149.333 149.333s66.859 149.333 149.333 149.333zM362.667 810.667c-70.571 0-128-57.429-128-128s57.429-128 128-128c70.571 0 128 57.429 128 128s-57.429 128-128 128zM746.667 725.333c-47.061 0-85.333-38.272-85.333-85.333s38.272-85.333 85.333-85.333c47.061 0 85.333 38.272 85.333 85.333s-38.272 85.333-85.333 85.333z" />
<glyph unicode="&#xe966;" glyph-name="toolbox" d="M298.667 693.333v-31.872h-117.333c-53.019 0-96-42.981-96-96v-362.539c0-53.019 42.981-96 96-96h661.333c25.461 0 49.879 10.114 67.882 28.118s28.118 42.421 28.118 67.882v362.539c0 53.019-42.981 96-96 96h-117.333v31.872c0 53.019-42.981 96-96 96h-234.667c-25.461 0-49.879-10.114-67.882-28.118s-28.118-42.421-28.118-67.882zM394.667 725.333h234.667c17.673 0 32-14.327 32-32v-31.872h-298.667v31.872c0 17.673 14.327 32 32 32v0zM298.667 597.333h64v0.128h480c17.673 0 32-14.327 32-32v-96h-128v32c0 17.673-14.327 32-32 32s-32-14.327-32-32v-32h-341.333v32c0 17.673-14.327 32-32 32s-32-14.327-32-32v-32h-128v96c0 17.673 14.327 32 32 32h117.333v-0.128zM682.667 405.461v-53.333c0-17.673 14.327-32 32-32s32 14.327 32 32v53.333h128v-202.539c0-17.673-14.327-32-32-32h-661.333c-17.673 0-32 14.327-32 32v202.539h128v-53.333c0-17.673 14.327-32 32-32s32 14.327 32 32v53.333h341.333z" />
<glyph unicode="&#xe967;" glyph-name="undo" d="M512.081 768.052c133.753-0.023 253.382-83.231 299.936-208.621s10.211-266.506-91.12-353.81c-101.331-87.304-246.27-102.375-363.396-37.788s-181.724 195.208-161.965 327.493c2.859 19.371-11.307 38.059-30.891 38.059-15.795 0.288-29.43-11.008-32.085-26.581-28.597-184.536 79.706-362.891 256.632-422.627s371.176 16.466 460.292 180.569c89.116 164.102 47.258 368.523-99.185 484.392s-355.011 109.59-494.219-14.878v44.459c0 17.673-14.327 32-32 32s-32-14.327-32-32v-128c0-17.664 14.336-32 32-32h128c17.673 0 32 14.327 32 32s-14.327 32-32 32h-57.6c59.117 54.963 136.88 85.458 217.6 85.333z" />
<glyph unicode="&#xe968;" glyph-name="unlink" d="M694.519 109.037v-130.37h-78.222v130.37h78.222zM818.573 187.259l110.612-110.645-45.832-45.8-110.612 110.645 45.832 45.8zM305.912 526.222l47.552-47.268-124.574-124.708c-33.858-33.894-47.081-83.297-34.688-129.597s48.519-82.465 94.77-94.872c46.251-12.406 95.6 0.831 129.458 34.725v0l124.239 124.708 47.552-47.603-123.235-124.372c-38.227-38.663-90.326-60.395-144.667-60.346-53.407-0.306-104.739 20.683-142.657 58.334-37.981 38.062-59.147 89.769-58.769 143.566s22.268 105.201 60.779 142.725v0l124.239 124.708zM981.333 343.704v-78.222h-130.37v78.222h130.37zM701.679 839.111c53.407 0.306 104.739-20.683 142.657-58.334 37.981-38.062 59.147-89.769 58.769-143.566s-22.268-105.201-60.779-142.725v0l-124.239-124.708-47.552 47.268 124.574 124.708c33.858 33.894 47.081 83.297 34.688 129.597s-48.519 82.465-94.77 94.872c-46.251 12.406-95.6-0.831-129.458-34.725v0l-124.574-124.708-47.218 47.603 123.235 124.372c38.227 38.663 90.326 60.395 144.667 60.346zM173.037 604.444v-78.222h-130.37v78.222h130.37zM140.614 865.185l110.645-110.612-45.8-45.832-110.645 110.612 45.8 45.832zM433.778 917.333v-130.37h-78.222v130.37h78.222z" />
<glyph unicode="&#xe969;" glyph-name="upload" d="M245.325 810.667h575.915c16.815 0.027 30.74 13.064 31.875 29.84s-10.908 31.569-27.566 33.861l-4.309 0.299h-575.915c-16.823-0.005-30.769-13.035-31.916-29.819s10.898-31.589 27.564-33.882l4.352-0.299zM528.333 21.419l4.992-0.256c21.631 0 39.837 16.192 42.368 37.675l0.299 4.992v537.173l140.544-140.501c15.201-15.199 39.335-16.717 56.32-3.541l4.011 3.541c15.199 15.201 16.717 39.335 3.541 56.32l-3.541 4.011-213.205 213.205c-15.201 15.199-39.335 16.717-56.32 3.541l-4.011-3.541-213.504-213.205c-16.055-15.903-16.926-41.566-1.985-58.521s40.509-19.32 58.305-5.394l4.011 3.541 140.501 140.331v-536.96c-0.019-21.647 16.176-39.878 37.675-42.411z" />
<glyph unicode="&#xe96a;" glyph-name="variable" d="M149.261 714.667c0 64.801 52.532 117.333 117.333 117.333 17.673 0 32-14.327 32-32s-14.327-32-32-32c-29.44 0-53.333-23.893-53.333-53.333v-183.851c0-31.744-12.8-61.312-34.219-82.816 21.419-21.504 34.219-51.072 34.219-82.816v-183.851c0-29.44 23.893-53.333 53.333-53.333 17.673 0 32-14.327 32-32s-14.327-32-32-32c-64.801 0-117.333 52.532-117.333 117.333v183.851c-0.017 22.946-14.71 43.309-36.48 50.56l-5.632 1.92c-13.033 4.376-21.815 16.588-21.815 30.336s8.782 25.96 21.815 30.336l5.632 1.92c21.76 7.253 36.48 27.605 36.48 50.56v183.851zM874.594 714.667c0 64.801-52.532 117.333-117.333 117.333-17.673 0-32-14.327-32-32s14.327-32 32-32c29.44 0 53.333-23.893 53.333-53.333v-183.851c0-31.744 12.8-61.312 34.219-82.816-21.917-21.989-34.222-51.77-34.219-82.816v-183.851c0-29.44-23.893-53.333-53.333-53.333-17.673 0-32-14.327-32-32s14.327-32 32-32c64.801 0 117.333 52.532 117.333 117.333v183.851c0 22.955 14.677 43.307 36.48 50.56l5.632 1.92c13.033 4.376 21.815 16.588 21.815 30.336s-8.782 25.96-21.815 30.336l-5.632 1.92c-21.77 7.251-36.463 27.614-36.48 50.56v183.851zM387.853 659.627c-6.886 9.391-18.33 14.299-29.88 12.816s-21.383-9.123-25.674-19.949c-4.291-10.826-2.362-23.128 5.037-32.121l134.059-172.373-134.059-172.373c-10.246-13.972-7.51-33.561 6.171-44.192s33.339-8.442 44.346 4.938l124.075 159.445 124.075-159.531c7.020-9.024 18.32-13.618 29.645-12.051s20.953 9.057 25.259 19.648c4.305 10.591 2.633 22.675-4.386 31.699l-134.059 172.416 134.059 172.373c10.246 13.972 7.51 33.561-6.171 44.192s-33.339 8.442-44.346-4.938l-124.075-159.488-124.075 159.488z" />
<glyph unicode="&#xe96b;" glyph-name="view" d="M500.286 554.453c94.257 0 170.667-76.41 170.667-170.667s-76.41-170.667-170.667-170.667c-94.257 0-170.667 76.41-170.667 170.667s76.41 170.667 170.667 170.667v0zM500.286 490.453c-58.91 0-106.667-47.756-106.667-106.667s47.756-106.667 106.667-106.667c58.91 0 106.667 47.756 106.667 106.667s-47.756 106.667-106.667 106.667v0zM500.286 704c196.821 0 366.763-134.4 413.909-322.731 4.3-17.143-6.11-34.526-23.253-38.827s-34.526 6.11-38.827 23.253c-40.643 161.215-185.658 274.181-351.917 274.14s-311.22-113.076-351.784-274.311c-4.277-17.155-21.651-27.594-38.805-23.317s-27.594 21.651-23.317 38.805c47.608 189.857 218.26 322.994 413.995 322.987z" />
<glyph unicode="&#xe96c;" glyph-name="warning" d="M465.792 819.973c44.044 24.388 99.447 10.607 126.933-31.573l3.541-5.888 331.051-597.717c15.884-28.708 16.008-63.539 0.327-92.359s-44.993-47.635-77.725-49.892l-6.571-0.256h-662.016c-32.773 0-63.281 16.719-80.916 44.342s-19.96 62.335-6.166 92.063l3.072 6.101 330.965 597.717c8.726 15.754 21.708 28.735 37.461 37.461h0.043zM871.339 153.819l-331.093 597.675c-5.255 9.462-14.937 15.625-25.734 16.383s-21.245-3.994-27.77-12.628l-2.432-3.755-330.965-597.675c-5.152-9.282-5.366-20.515-0.571-29.986s13.976-15.948 24.507-17.289l4.053-0.256h662.016c10.61 0.008 20.525 5.274 26.474 14.060s7.155 19.948 3.222 29.802l-1.707 3.669zM512.299 255.92c15.542 0.492 30.119-7.519 38.035-20.903s7.916-30.016 0-43.4c-7.916-13.384-22.493-21.394-38.035-20.903-23.004 0.728-41.276 19.587-41.276 42.603s18.271 41.875 41.276 42.603v0zM512.085 576.005c15.993 0.024 29.548-11.764 31.744-27.605l0.299-4.352 0.171-192.085c0.197-16.961-12.875-31.13-29.797-32.296s-31.815 11.074-33.947 27.902l-0.256 4.352-0.171 192.085c0 17.673 14.327 32 32 32h-0.043z" />
<glyph unicode="&#xe96d;" glyph-name="world" d="M533.333-21.333c247.424 0 448 200.576 448 448s-200.576 448-448 448c-247.424 0-448-200.576-448-448s200.576-448 448-448zM533.333 818.667c36.792 0 78.792-33.040 113.232-106.848 12.152-26.096 22.736-56.112 31.304-89.152h-289.072c8.568 33.040 19.152 63.056 31.36 89.152 34.328 73.808 76.328 106.848 113.176 106.848zM369.365 735.507c-16.536-36.222-29.351-74.029-38.248-112.84h-137.368c47.277 81.711 122.373 143.688 211.568 174.608-13.496-18.48-25.536-39.424-35.952-61.768zM320.085 566.667c-7.248-46.313-10.843-93.124-10.752-140 0-48.72 3.752-95.872 10.808-140h-153.048c-17.079 44.698-25.81 92.15-25.76 140 0 49.28 9.128 96.544 25.76 140h152.992zM331.117 230.667c9.856-41.608 22.792-79.632 38.248-112.84 10.416-22.344 22.456-43.288 35.952-61.768-89.195 30.92-164.291 92.897-211.568 174.608h137.368zM388.797 230.667h289.072c-7.714-30.611-18.211-60.453-31.36-89.152-34.328-73.808-76.328-106.848-113.176-106.848-36.792 0-78.792 33.040-113.232 106.848-13.109 28.704-23.568 58.545-31.248 89.152h-0.056zM689.797 286.667h-312.928c-7.782 46.258-11.641 93.092-11.538 140 0 49.448 4.090 96.6 11.538 140h312.928c7.448-43.4 11.536-90.552 11.536-140s-4.088-96.6-11.536-140v0zM735.549 230.667h137.368c-47.277-81.711-122.373-143.688-211.568-174.608 13.496 18.48 25.536 39.424 35.952 61.768 15.456 33.208 28.392 71.232 38.248 112.84v0zM899.629 286.667h-153.104c7.056 44.128 10.808 91.28 10.808 140s-3.752 95.872-10.808 140h153.048c16.632-43.456 25.76-90.72 25.76-140s-9.128-96.544-25.76-140h0.056zM661.349 797.275c89.198-30.916 164.294-92.893 211.568-174.608h-137.424c-8.897 38.811-21.712 76.618-38.248 112.84-9.971 21.697-22.011 42.382-35.952 61.768h0.056z" />
<glyph unicode="&#xe96e;" glyph-name="wrench" d="M435.117 629.26c-0.026 85.538 44.503 164.915 117.515 209.48s163.965 47.885 240.031 8.76c9.077-4.687 15.371-13.426 16.94-23.52s-1.777-20.332-9.004-27.552l-117.973-118.059 45.227-45.227 118.571 118.528c7.184 7.176 17.348 10.516 27.388 9.001s18.766-7.705 23.513-16.681c45.162-85.212 36.211-188.98-22.877-265.199s-157.349-110.751-251.129-88.252l-314.24-325.035c-49.956-51.688-132.355-53.092-184.043-3.136s-53.092 132.355-3.136 184.043l318.933 329.984c-3.807 17.349-5.724 35.059-5.717 52.821v0.043zM680.45 810.593c-57.462 0.018-111.532-27.201-145.744-73.368s-44.519-105.817-27.781-160.787c3.393-11.123 0.486-23.211-7.595-31.573l-331.435-342.869c-16.425-16.996-22.534-41.464-16.027-64.186s24.642-40.247 47.573-45.973c22.932-5.726 47.176 1.217 63.601 18.213l327.509 338.773c8.532 8.858 21.386 12.043 33.067 8.192 62.494-20.661 131.276-5.836 179.71 38.735s68.913 111.886 53.506 175.878l-106.325-106.368c-6.002-6.006-14.144-9.38-22.635-9.38s-16.633 3.374-22.635 9.38l-90.496 90.539c-12.478 12.494-12.478 32.733 0 45.227l105.216 105.259c-12.973 2.874-26.222 4.319-39.509 4.309v0z" />
<glyph unicode="&#xe96f;" glyph-name="switch" d="M906.667 640.011c15.991 0 29.527-11.806 31.701-27.648l0.299-4.352v-362.667c0-73.537-57.397-134.29-130.816-138.453l-7.851-0.213h-541.397l30.72-30.72c11.187-11.209 12.493-28.914 3.072-41.643l-3.115-3.584c-11.198-11.2-28.904-12.524-41.643-3.115l-3.584 3.115-85.333 85.333-2.731 3.072c-0.1 0.142-0.2 0.284-0.299 0.427l2.987-3.499c-9.993 10.073-12.196 25.508-5.419 37.973 1.478 2.657 3.316 5.098 5.461 7.253l85.333 85.333c11.857 11.765 30.769 12.431 43.424 1.529s14.797-29.703 4.917-43.172l-3.115-3.584-30.72-30.72h541.44c38.869 0.003 71.235 29.826 74.411 68.565l0.256 6.101v362.667c0 17.673 14.327 32 32 32v0zM776.363 868.406l3.584-3.115 85.333-85.333c1.091-1.078 2.104-2.233 3.029-3.456l-2.987 3.456c12.366-12.446 12.442-32.517 0.171-45.056l-0.213-0.171-85.333-85.333c-11.857-11.765-30.769-12.431-43.424-1.529s-14.797 29.703-4.917 43.172l3.115 3.584 30.635 30.72h-541.355c-38.854-0.001-71.214-29.8-74.411-68.523l-0.256-6.144v-362.667c-0.005-16.823-13.035-30.769-29.819-31.916s-31.589 10.898-33.882 27.564l-0.299 4.352v362.667c0 73.537 57.397 134.29 130.816 138.453l7.851 0.213h541.397l-30.72 30.72c-11.187 11.209-12.493 28.914-3.072 41.643l3.115 3.584c11.198 11.2 28.904 12.524 41.643 3.115v0zM512 618.678c94.257 0 170.667-76.41 170.667-170.667s-76.41-170.667-170.667-170.667c-94.257 0-170.667 76.41-170.667 170.667s76.41 170.667 170.667 170.667zM512 554.678c-58.91 0-106.667-47.756-106.667-106.667s47.756-106.667 106.667-106.667c58.91 0 106.667 47.756 106.667 106.667s-47.756 106.667-106.667 106.667v0z" />
<glyph unicode="&#xe970;" glyph-name="logout" d="M533.333 823.467c64.788 0 130.591-50.269 135.209-112.504l0.258-6.962v-85.333c0-18.851-15.282-34.133-34.133-34.133-17.401 0-31.761 13.021-33.867 29.852l-0.266 4.282v85.333c0 22.348-30.717 47.983-61.446 50.921l-5.754 0.279h-320.889c-25.974 0-47.465-20.077-50.050-45.952l-0.261-5.248v-512c0-26.584 19.868-48.323 45.18-50.937l5.131-0.263h337.778c25.974 0 47.466 20.077 50.050 45.952l0.261 5.248v85.333c0 18.851 15.282 34.133 34.133 34.133 17.401 0 31.761-13.021 33.867-29.852l0.266-4.282v-85.333c0-63.459-49.155-115.482-111.346-119.248l-7.232-0.218h-337.778c-63.141 0-114.634 49.672-118.362 112.197l-0.216 7.269v512c0 63.459 49.155 115.482 111.346 119.248l7.232 0.218h320.889zM790.229 646.001l3.811-3.325 168.889-170.667c11.965-12.091 13.053-30.891 3.263-44.202l-3.263-3.816-168.889-170.667c-13.26-13.4-34.872-13.513-48.271-0.253-12.181 12.054-13.382 31.011-3.538 44.426l3.285 3.846 110.292 111.457h-491.364c-18.851 0-34.133 15.282-34.133 34.133 0 17.401 13.021 31.761 29.852 33.867l4.282 0.266 493.412 0.043-112.34 113.548c-12.054 12.181-13.057 31.15-3.072 44.46l3.325 3.811c12.181 12.054 31.15 13.057 44.46 3.072z" />
<glyph unicode="&#xe971;" glyph-name="person-board" d="M444.952 548.572c74.059 0 134.095 60.036 134.095 134.095s-60.036 134.095-134.095 134.095c-74.059 0-134.095-60.036-134.095-134.095s60.036-134.095 134.095-134.095zM444.952 615.619c-37.029 0-67.048 30.018-67.048 67.048s30.018 67.048 67.048 67.048c37.029 0 67.048-30.018 67.048-67.048s-30.018-67.048-67.048-67.048zM277.333 515.048c-55.544 0-100.571-45.027-100.571-100.571 0-21.992 2.682-70.266 41.771-112.573 39.357-42.441 108.751-71.808 226.286-71.808 117.4 0 186.929 29.099 226.286 71.339 39.357 42.173 42.039 90.514 42.039 113.042 0 26.673-10.596 52.254-29.457 71.115s-44.442 29.457-71.115 29.457h-335.238zM243.81 414.476c0 18.515 15.009 33.524 33.524 33.524h335.238c18.515 0 33.524-15.009 33.524-33.524 0-16.896-2.213-43.916-24.003-67.316-21.723-23.333-69.662-50.018-177.274-50.018-107.544 0-155.349 26.886-177.006 50.286-21.858 23.601-24.003 50.688-24.003 67.048zM42.667 716.191c0 111.088 90.055 201.143 201.143 201.143h402.286c111.088 0 201.143-90.055 201.143-201.143v-402.286c0-111.088-90.055-201.143-201.143-201.143h-402.286c-111.088 0-201.143 90.055-201.143 201.143v402.286zM243.81 850.286c-74.059 0-134.095-60.036-134.095-134.095v-402.286c0-74.059 60.036-134.095 134.095-134.095h402.286c74.059 0 134.095 60.036 134.095 134.095v402.286c0 74.059-60.036 134.095-134.095 134.095h-402.286zM377.905-21.333c-57.251-0.067-111.802 24.33-149.918 67.048h451.633c129.603 0 234.667 105.064 234.667 234.667v451.633c41.167-36.876 67.048-90.38 67.048-149.918v-301.714c0-166.632-135.082-301.714-301.714-301.714h-301.714z" />
</font>
</defs>
</svg>
